Вторжение / The Invasion (Оливер Хиршбигель, Джеймс МакТиг) [2007 г., Фантастика, триллер, BDRip 720р] DUB + Original

Ответить на тему
 
Автор
Сообщение

awk05 ®

Пол:

Стаж: 8 лет 9 месяцев

Сообщений: 1334

Репутация: 278 [+] [-]

Откуда: Западная Украина Ривне

Пост 08-Апр-2014 23:39

[Цитировать] 

--Вторжение / The Invasion«Никому не верь. Ни на что не реагируй. ...И не спи»-- Год выпуска: 2007
Страна: США, Warner Bros. Pictures Inc, Village Roadshow Pictures, Silver Pictures, Vertigo Entertainment, Oliver Pictures
Жанр: Фантастика, триллер
Продолжительность: 01:39:32
Перевод: Профессиональный (полное дублирование) + Original
Русские субтитры: нет--Режиссер: Оливер Хиршбигель, Джеймс МакТиг--В ролях: Николь Кидман (Carol Bennell), Дэниэл Крэйг (Ben Driscoll), Джереми Нортэм (Tucker Kaufman), Джексон Бонд (Oliver), Джеффри Райт (Dr. Stephen Galeano), Вероника Картрайт (Wendy Lenk), Йозеф Зоммер (Dr. Henryk Belicec), Селия Уэстон (Ludmilla Belicec), Роджер Рис (Yorish), Эрик Бенжамин (Gene)--Описание: После таинственного крушения космического корабля выясняется, что среди его останков находится нечто чужеродное, оказывающее вредоносное влияние на людей, входящих с ним в контакт. Вашингтонский психиатр Кэрол Беннелл (Николь Кидман) и ее коллега Бен Дрисколл (Дэниэл Крэйг) вскоре узнают шокирующую правду о вспыхнувшей эпидемии, которая, оказывается, имеет инопланетное происхождение. Люди становятся ее жертвами исключительно во время сна. В результате они полностью лишаются человеческих эмоций и начинают вести себя совсем не так, как раньше. По мере распространения инфекции все больше людей перестают быть похожими сами на себя, и среди них уже невозможно отличить тех, кому можно доверять. Кэрол понимает, что ей необходимо как можно дольше не спать...--Качество видео:BDRip 720p
Формат видео: MKV
Видео кодек: AVC (High@L5.1)
Аудио кодек: AC3
Видео: 1280x720 (16:9), 23,976 кадра/сек, 5 658 Кбит/сек, (0.256 бит/пиксели*кадры)
Аудио 1: 6 каналов Front: L C R, Side: L R, LFE, 48,0 КГц, 384 Кбит/сек, 16 бит CBR[RUS]
Аудио 2: 6 каналов Front: L C R, Side: L R, LFE, 48,0 КГц, 640 Кбит/сек, 16 бит CBR[ENG]--

Знаете ли Вы, что...

* Фильм снят по мотивам романа Джека Финни «Похитители тел» (The Body Snatchers, 1955).
* Фильм был завершен еще в начале 2006 года, но в 2007 по сути переснят заново — сценарий переписали Лана и Энди Вачовски, а в качестве режиссера выступил Джеймс МакТиг.
* 25 января 2007 года появилось экстренное сообщение о автокатастрофе, в которую попала Николь Кидман во время повторных пересъёмок фильма. Актриса находилась за рулём автомобиля, в момент, когда снималась сцена преследования её героини группой зомби. Автомобиль натолкнулся на другое автотранспортное средство, в результате чего пострадало восемь человек (один из каскадёров сломал руку). Сама Николь Кидман в шоковом состоянии была отправлена в госпиталь, однако через два часа была выпущена и настояла на продолжении съёмок в течение ночи. Это уже вторая авария на съёмочной площадке с участием Кидман: ранее в 2005 году, в период исходных съёмок она так же оказалась в транспортном средстве, которое сорвалось с тормоза и врезалось в декорации. Тогда актриса не пострадала.
* Первоначально премьера фильма в США планировалась в сентябре 2006 года. Однако по неизвестным причинам прокат был перенесён студией сперва на 26 января 2007 года, а затем на 2 ноября того же года. Первоначальное название картины The Visiting изменено на The Invasion. Окончательная дата премьеры в США — 17 августа 2007 года.
* Фильм планировался как ремейк классического фильма ужасов «Вторжение похитителей тел» (1978) (который, в свою очередь, также является ремейком одноимённого фильма 1956 года, а также экранизацией одноимённого романа Джека Финни). Однако на стадии пре-производства авторы фильма решили написать оригинальный сценарий.
* Актриса Вероника Картрайт (известная по роли Лэмберт из фильма «Чужой» (1979)) играла во «Вторжении похитителей тел» (1978) одну из главных ролей. Она единственная из всех героев сохранила свою человеческую природу к финалу той ленты.
* Дэниел Крэйг получил известие об утверждении его на роль Джеймса Бонда прямо во время съёмок «Вторжения». Актёру пришлось взять короткий перерыв для того, чтобы вернуться в Лондон для пресс-конференции.
* Фильму потребовались дополнительные пересъёмки, так как по мнению продюсеров фильм оказался недостаточно «триллером».

MediaInfo

Общее
Уникальный идентификатор : 254084137070085715300402278340712105344 (0xBF26D325F148F2CBAAEDBF44160A8580)
Полное имя : G:\Films-new\hns-ti.mkv
Формат : Matroska
Версия формата : Version 1
Размер файла : 4,64 Гбайт
Продолжительность : 1 ч. 39 м.
Общий поток : 6686 Кбит/сек
Название фильма : -=HANSMER=-
Дата кодирования : UTC 2008-01-12 14:38:19
Программа кодирования : mkvmerge v2.0.2 ('You're My Flame') built on Aug 15 2007 20:05:20
Библиотека кодирования : libebml v0.7.7 + libmatroska v0.8.1
Видео
Идентификатор : 1
Формат : AVC
Формат/Информация : Advanced Video Codec
Профиль формата : High@L5.1
Параметр CABAC формата : Да
Параметр ReFrames формата : 8 кадров
Идентификатор кодека : V_MPEG4/ISO/AVC
Продолжительность : 1 ч. 39 м.
Битрейт : 5658 Кбит/сек
Ширина : 1280 пикселей
Высота : 720 пикселей
Соотношение сторон : 16:9
Режим частоты кадров : Постоянный
Частота кадров : 23,976 кадра/сек
Цветовое пространство : YUV
Субдискретизация насыщенности : 4:2:0
Битовая глубина : 8 бит
Тип развёртки : Прогрессивная
Бит/(Пиксели*Кадры) : 0.256
Размер потока : 3,84 Гбайт (83%)
Заголовок : The.Invasion.720p.Bluray.x264
Библиотека кодирования : x264 core 57 svn-709C
Настройки программы : cabac=1 / ref=5 / deblock=1:-2:-1 / analyse=0x1:0 / me=umh / fpel_cmp=sad / subme=7 / me-prepass=0 / brdo=1 / mixed_ref=1 / me_range=16 / chroma_me=1 / trellis=1 / 8x8dct=0 / cqm=2 / deadzone=21,11 / chroma_qp_offset=0 / threads=6 / nr=0 / decimate=1 / mbaff=0 / bframes=3 / b_pyramid=1 / b_adapt=1 / b_bias=0 / direct=1 / wpredb=1 / bime=1 / keyint=250 / keyint_min=25 / scenecut=40(pre) / rc=2pass / bitrate=5658 / ratetol=1.0 / rceq='blurCplx^(1-qComp)' / qcomp=0.60 / qpmin=10 / qpmax=51 / qpstep=4 / cplxblur=20.0 / qblur=0.5 / ip_ratio=1.40 / pb_ratio=1.30
Язык : English
Default : Да
Forced : Нет
Аудио #1
Идентификатор : 2
Формат : AC-3
Формат/Информация : Audio Coding 3
Расширение режима : CM (complete main)
Параметр Endianness формата : Big
Идентификатор кодека : A_AC3
Продолжительность : 1 ч. 39 м.
Вид битрейта : Постоянный
Битрейт : 384 Кбит/сек
Каналы : 6 каналов
Расположение каналов : Front: L C R, Side: L R, LFE
Частота : 48,0 КГц
Битовая глубина : 16 бит
Метод сжатия : С потерями
Размер потока : 273 Мбайт (6%)
Заголовок : AC3, 6ch 384 kbps
Язык : Russian
Default : Да
Forced : Нет
Аудио #2
Идентификатор : 3
Формат : AC-3
Формат/Информация : Audio Coding 3
Расширение режима : CM (complete main)
Параметр Endianness формата : Big
Идентификатор кодека : A_AC3
Продолжительность : 1 ч. 39 м.
Вид битрейта : Постоянный
Битрейт : 640 Кбит/сек
Каналы : 6 каналов
Расположение каналов : Front: L C R, Side: L R, LFE
Частота : 48,0 КГц
Битовая глубина : 16 бит
Метод сжатия : С потерями
Размер потока : 455 Мбайт (10%)
Заголовок : AC3, 6ch 640 kbps
Язык : English
Default : Нет
Forced : Нет

Скриншоты




_________________
[Торрент-статистика]
[Профиль]  [ЛС] 

johnnyf

Пол:

Стаж: 8 лет 5 месяцев

Сообщений: 24

Репутация: 6 [+] [-]

Пост 27-Окт-2015 20:46 (спустя 1 год 6 месяцев)

[Цитировать] 

Что-то вообще никакой раздачи не чувствуется. Уже десять фильмов закачал, а этот ни на байт не загрузился... ac
[Торрент-статистика]
[Профиль]  [ЛС] 
Показать сообщения:    
Ответить на тему

Текущее время: Сегодня 10:41

Часовой пояс: GMT + 4



Вы не можете начинать темы
Вы не можете отвечать на сообщения
Вы не можете редактировать свои сообщения
Вы не можете удалять свои сообщения
Вы не можете голосовать в опросах
Вы не можете прикреплять файлы к сообщениям
Вы не можете скачивать файлы