Буря в Арктике / Arctic Blast (Брайан Тренчард-Смит) [2010, фантастика, триллер, BDRip HQRip AVC 720p]

Ответить на тему
 
Автор
Сообщение

diim ®

Пол:

Стаж: 2 года 9 месяцев

Сообщений: 1034

Репутация: 112 [+] [-]

Пост 27-Дек-2011 07:10

[Цитировать] 

Буря в Арктике / Arctic Blast
Год выпуска: 2010
Страна: Канада, Австралия
Жанр: фантастика, триллер
Продолжительность: 01:30:33
Перевод: Профессиональный (многоголосый закадровый)-Режиссёр: Брайан Тренчард-Смит
В ролях: Индиана Эванс, Синтия Берк, Майкл Шэнкс, Роберт Мэммоун, Александра Дэйвис, Брюс Дэвисон-Описание: В результате солнечного затмения на Земле начинается цепь катастрофических событий, которые угрожает планете началом нового Ледникового периода.-Мировая премьера: 4 августа 2010
Бюджет: AUD 5 000 000
3.342 336-Качество: BDRip 720p
Формат: MKV
Видео кодек: AVC
Аудио кодек: AC3 (Dolby Digital)
Видео: 1280x720 23.98fps 3 025 Kbps 0.137Bits/Pixel
Аудио #1: 384 Кбит/сек, 6 каналов, 48,0 КГц

MediaInfo

General
Unique ID : 234093722226283724412631231667701203354 (0xB01CCF99F3A3AE38879A48F6C8BEC19A)
Complete name : P:\1Arctic.Blast.2010..mkv
Format : Matroska
File size : 2.18 GiB
Duration : 1h 31mn
Overall bit rate : 3 409 Kbps
Movie name : Rip by Blo
Encoded date : UTC 2011-12-25 12:57:44
Writing application : mkvmerge v3.2.0 ('Beginnings') built on Feb 12 2010 16:46:17
Writing library : libebml v0.7.9 + libmatroska v0.8.1
Video
ID : 1
Format : AVC
Format/Info : Advanced Video Codec
Format profile : High@L3.1
Format settings, CABAC : Yes
Format settings, ReFrames : 2 frames
Codec ID : V_MPEG4/ISO/AVC
Duration : 1h 31mn
Bit rate : 3 025 Kbps
Width : 1 280 pixels
Height : 720 pixels
Display aspect ratio : 16:9
Frame rate mode : Variable
Frame rate : 23.976 fps
Color space : YUV
Chroma subsampling : 4:2:0
Bit depth : 8 bits
Scan type : Progressive
Bits/(Pixel*Frame) : 0.137
Stream size : 1.89 GiB (87%)
Title : буря в Арктке
Writing library : x264 core 112 r1834 a51816a
Encoding settings : cabac=1 / ref=2 / deblock=1:0:0 / analyse=0x3:0x113 / me=hex / subme=6 / psy=1 / psy_rd=1.00:0.00 / mixed_ref=0 / me_range=16 / chroma_me=1 / trellis=0 / 8x8dct=1 / cqm=0 / deadzone=21,11 / fast_pskip=1 / chroma_qp_offset=-2 / threads=4 / sliced_threads=0 / nr=0 / decimate=1 / interlaced=0 / constrained_intra=0 / bframes=3 / b_pyramid=0 / b_adapt=1 / b_bias=0 / direct=3 / weightb=1 / open_gop=0 / weightp=2 / keyint=250 / keyint_min=25 / scenecut=40 / intra_refresh=0 / rc_lookahead=40 / rc=2pass / mbtree=1 / bitrate=3025 / ratetol=1.0 / qcomp=0.60 / qpmin=10 / qpmax=51 / qpstep=4 / cplxblur=20.0 / qblur=0.5 / ip_ratio=1.41 / aq=1:1.00
Language : English
Audio
ID : 2
Format : AC-3
Format/Info : Audio Coding 3
Mode extension : CM (complete main)
Codec ID : A_AC3
Duration : 1h 31mn
Bit rate mode : Constant
Bit rate : 384 Kbps
Channel(s) : 6 channels
Channel positions : Front: L C R, Side: L R, LFE
Sampling rate : 48.0 KHz
Bit depth : 16 bits
Compression mode : Lossy
Stream size : 252 MiB (11%)
Title : MVO R5
Language : Russian

Скриншоты

[Торрент-статистика]
[Профиль]  [ЛС] 
Показать сообщения:    
Ответить на тему

Текущее время: Сегодня 01:49

Часовой пояс: GMT + 4



Вы не можете начинать темы
Вы не можете отвечать на сообщения
Вы не можете редактировать свои сообщения
Вы не можете удалять свои сообщения
Вы не можете голосовать в опросах
Вы не можете прикреплять файлы к сообщениям
Вы не можете скачивать файлы