Одержимая / Crush (Малик Бейдер / Malik Bader) [2013 г., триллер, BDRip 720p] Dub [Чистый звук] + DVO [студия Elrom] + AVO [ХихиДок] + Original (ENG) + Subs (ENG)

Ответить на тему
 
Автор
Сообщение

TiZAr ®

Пол:

Стаж: 3 года 3 месяца

Сообщений: 836

Репутация: 1157 [+] [-]

Откуда: Россия

Пост 24-Фев-2014 01:44

[Цитировать] 

Одержимая / Crush- Год выпуска: 2013
Страна: США / Intrepid Pictures
Жанр: триллер
Продолжительность: 01:34:51
Перевод: Профессиональный (полное дублирование)
Качество перевода: Чистый звук
Перевод #2: Профессиональное (двухголосое) [студия Elrom]
Перевод #3: Любительское (одноголосое) [ХихиДок]
Субтитры: английские
Оригинальная аудиодорожка: английская
Навигация по главам: Есть
Режиссер: Малик Бейдер / Malik Bader- -В ролях:
Камилла Гуати, Сара Болджер, Лукас Тилл, Кристал Рид, Каитриона Бэлфи, Рейд Юинг, Мередит Сэленджер, Майкл Лэндис, Холт МакКэллани, Ли Уоннелл, Никки СуХу, Айзая Мустафа, Мэрайя Базолин, Кристин Куик, Эшли Крэйг и др.
Описание:
В школьную звезду - лидера футбольной команды Скотта влюбляется скромная и незаметная девушка Бесс. Скотт не обращает на неё внимания, но Бесс не собирается легко сдаваться. Если она его не получит - никто его не получит.
Релиз от:

Качество: BDRip 720p | Сэмпл
Формат: MKV
Видео: AVC, 1280x720 (16:9), 23.976 fps, 4 683 Kbps (0.212 bit/pixel)
Аудио #1: AC-3, 48.0 KHz, 2 ch, 192 Kbps, CBR (Russian) Dub [Чистый звук]
Аудио #2: AC-3, 48.0 KHz, 2 ch, 192 Kbps, CBR (Russian) DVO [студия Elrom]
Аудио #3: AC-3, 48.0 KHz, 2 ch, 192 Kbps, CBR (Russian) AVO [ХихиДок]
Аудио #4: AC-3, 48.0 KHz, 6 ch, 640 Kbps, CBR (English) Original (ENG)

MI

Код:
General
Unique ID                                : 170397628191835764964695873692402539380 (0x803163B39119C3FDACBA5EC2A9415B74)
Complete name                            : E:\downloads\Crush.2013.Blu.Ray.720p.CINEMANIA.mkv
Format                                   : Matroska
Format version                           : Version 4 / Version 2
File size                                : 3.99 GiB
Duration                                 : 1h 34mn
Overall bit rate                         : 6 019 Kbps
Movie name                               : Release Group CINEMANIA
Encoded date                             : UTC 2014-02-21 21:54:10
Writing application                      : mkvmerge v6.7.0 ('Back to the Ground') 64bit built on Jan  8 2014 15:10:52
Writing library                          : libebml v1.3.0 + libmatroska v1.4.1
Video
ID                                       : 1
Format                                   : AVC
Format/Info                              : Advanced Video Codec
Format profile                           : High@L4.1
Format settings, CABAC                   : Yes
Format settings, ReFrames                : 9 frames
Codec ID                                 : V_MPEG4/ISO/AVC
Duration                                 : 1h 34mn
Bit rate                                 : 4 683 Kbps
Width                                    : 1 280 pixels
Height                                   : 720 pixels
Display aspect ratio                     : 16:9
Frame rate mode                          : Constant
Frame rate                               : 23.976 fps
Color space                              : YUV
Chroma subsampling                       : 4:2:0
Bit depth                                : 8 bits
Scan type                                : Progressive
Bits/(Pixel*Frame)                       : 0.212
Stream size                              : 3.10 GiB (78%)
Title                                    : Release Group CINEMANIA
Language                                 : English
Default                                  : Yes
Forced                                   : No
Audio #1
ID                                       : 2
Format                                   : AC-3
Format/Info                              : Audio Coding 3
Mode extension                           : CM (complete main)
Format settings, Endianness              : Big
Codec ID                                 : A_AC3
Duration                                 : 1h 34mn
Bit rate mode                            : Constant
Bit rate                                 : 192 Kbps
Channel count                            : 2 channels
Channel positions                        : Front: L R
Sampling rate                            : 48.0 KHz
Bit depth                                : 16 bits
Compression mode                         : Lossy
Stream size                              : 130 MiB (3%)
Title                                    : Дубляж (Чистый Звук)
Language                                 : Russian
Default                                  : Yes
Forced                                   : Yes
Audio #2
ID                                       : 3
Format                                   : AC-3
Format/Info                              : Audio Coding 3
Mode extension                           : CM (complete main)
Format settings, Endianness              : Big
Codec ID                                 : A_AC3
Duration                                 : 1h 34mn
Bit rate mode                            : Constant
Bit rate                                 : 192 Kbps
Channel count                            : 2 channels
Channel positions                        : Front: L R
Sampling rate                            : 48.0 KHz
Bit depth                                : 16 bits
Compression mode                         : Lossy
Stream size                              : 130 MiB (3%)
Title                                    : Elrom
Language                                 : Russian
Default                                  : No
Forced                                   : No
Audio #3
ID                                       : 4
Format                                   : AC-3
Format/Info                              : Audio Coding 3
Mode extension                           : CM (complete main)
Format settings, Endianness              : Big
Codec ID                                 : A_AC3
Duration                                 : 1h 34mn
Bit rate mode                            : Constant
Bit rate                                 : 192 Kbps
Channel count                            : 2 channels
Channel positions                        : Front: L R
Sampling rate                            : 48.0 KHz
Bit depth                                : 16 bits
Compression mode                         : Lossy
Stream size                              : 130 MiB (3%)
Title                                    : ХиХиДок
Language                                 : Russian
Default                                  : No
Forced                                   : No
Audio #4
ID                                       : 5
Format                                   : AC-3
Format/Info                              : Audio Coding 3
Mode extension                           : CM (complete main)
Format settings, Endianness              : Big
Codec ID                                 : A_AC3
Duration                                 : 1h 34mn
Bit rate mode                            : Constant
Bit rate                                 : 640 Kbps
Channel count                            : 6 channels
Channel positions                        : Front: L C R, Side: L R, LFE
Sampling rate                            : 48.0 KHz
Bit depth                                : 16 bits
Compression mode                         : Lossy
Stream size                              : 434 MiB (11%)
Language                                 : English
Default                                  : No
Forced                                   : No
Text
ID                                       : 6
Format                                   : UTF-8
Codec ID                                 : S_TEXT/UTF8
Codec ID/Info                            : UTF-8 Plain Text
Language                                 : English
Default                                  : No
Forced                                   : No
Menu
00:00:00.000                             : en:00:00:00.000
00:08:55.326                             : en:00:08:55.326
00:16:25.985                             : en:00:16:25.985
00:24:31.553                             : en:00:24:31.553
00:32:20.981                             : en:00:32:20.981
00:42:06.482                             : en:00:42:06.482
00:49:13.325                             : en:00:49:13.325
00:56:01.525                             : en:00:56:01.525
01:03:18.878                             : en:01:03:18.878
01:12:36.769                             : en:01:12:36.769
01:20:16.478                             : en:01:20:16.478
01:29:03.922                             : en:01:29:03.922

Скриншоты



_________________
Не стоит обращать внимания на отсутствие сидов на моих раздачах. Все мои релизы мультитрекерные - нет сидов, включите DHT.
За релизами в HD качестве обращайтесь в личку, либо отписывайтесь в теме.
[Торрент-статистика]
[Профиль]  [ЛС] 
Показать сообщения:    
Ответить на тему

Текущее время: Сегодня 00:23

Часовой пояс: GMT + 4



Вы не можете начинать темы
Вы не можете отвечать на сообщения
Вы не можете редактировать свои сообщения
Вы не можете удалять свои сообщения
Вы не можете голосовать в опросах
Вы не можете прикреплять файлы к сообщениям
Вы не можете скачивать файлы