Странный Томас / Odd Thomas (Стивен Соммерс / Stephen Sommers) [2013 г., триллер, детектив, фэнтези, боевик, BDRip 1080p ] MVO студия 110/17, DeadSno & den904

Ответить на тему
 
Автор
Сообщение

awk05 ®

Пол:

Стаж: 4 года 5 месяцев

Сообщений: 1352

Репутация: 275 [+] [-]

Откуда: Западная Украина Ривне

Пост 14-Мар-2014 19:41

[Цитировать] 

--Странный Томас / Odd Thomas-- Страна: США
Жанр: триллер, детектив, фэнтези, боевик
Год выпуска: 2013
Продолжительность: 01:36:40
Перевод: Профессиональное (многоголосое) [студия 110/17] / Любительское (многоголосое) [DeadSno & den904]
Оригинальная аудиодорожка: английский
Субтитры: нет
Режиссер: Стивен Соммерс / Stephen Sommers--В ролях: Антон Ельчин (Odd Thomas), Эддисон Тимлин (Stormy Llewellyn), Гугу Мбата-Роу (Viola Peabody), Нико Торторелла (Officer Simon Varner), Пэттон Освальт (Ozzie Boone), Уиллем Дефо (Chief Wyatt Porter), Леонор Варела (Odd's Mother), Мэттью Пейдж (Harlo Landerson), Кэйси Мессер (Pool Mom), Барни Леннинг (Stevie)---Описание: Главный герой наделен даром (или проклятием) видеть мертвецов. Каждый их визит становится началом очередной охоты на убийцу - призраки ведут Томаса на помощь тем, кому еще рано расставаться с жизнью. О способности героя знают только самые близкие друзья и любимая девушка. С их помощью ему предстоит отвести большую беду от маленького городка в центре пустыни Мохаве.--Качество видео:BDRip 1080p
Формат видео: MKV
Видео кодек: AVC (High@L4.1)
Аудио кодек: AC3, DTS
Видео: 1920x800 (2.40:1), 23,976 кадра/сек, 10,7 Мбит/сек, 0.290 Бит/(Пиксели*Кадры)
Аудио 1: 6 каналов Front: L C R, Side: L R, LFE, 48,0 КГц, 384 Кбит/сек, 16 бит CBR [RUS]
Аудио 2: 6 каналов Front: L C R, Side: L R, LFE, 48,0 КГц, 448 Кбит/сек, 16 бит CBR [RUS]
Аудио 3: 6 каналов Front: L C R, Side: L R, LFE, 48,0 КГц, 1510 Кбит/сек, 24 бит CBR [ENG]-- --

Знаете ли Вы, что...

Когда Томас покидает больницу, на одном из знаков видна надпись «Мы верим в Странного» («In Odd We Trust»). Это название графической новеллы по циклу книг «Странный Томас», которая лежит в основе фильма.
Съемки приостанавливались на несколько недель из-за финансовых проблем.
Лили Коллинз, Эмма Робертс, Кэт Деннингс и Портия Даблдэй рассматривались на роль Шторми. Коллинз была фавориткой, но отказалась, чтобы сняться в фильме «Белоснежка: Месть гномов» (2012).
Тим Роббинс рассматривался на роль Портера.
Шон Пи Дидди Комбс и Фифти Сент первоначально рассматривались на роль Шамуса.
Изначально на роль Боба рассматривался Кевин Дж. О`Коннор.

Media Info

Общее
Уникальный идентификатор : 238308032930307556389986893233138289153 (0xB348752942EEE52BAA2BF35271E5CA01)
Полное имя : G:\Films-new\Odd.Thomas.2013.Blu.Ray.1080p.CINEMANIA.mkv
Формат : Matroska
Версия формата : Version 4 / Version 2
Размер файла : 8,98 Гбайт
Продолжительность : 1 ч. 36 м.
Общий поток : 13,3 Мбит/сек
Название фильма : CINEMANIA.CC
Дата кодирования : UTC 2013-10-27 15:25:04
Программа кодирования : mkvmerge v6.5.0 ('Isn't she lovely') built on Oct 20 2013 12:50:05
Библиотека кодирования : libebml v1.3.0 + libmatroska v1.4.1
Видео
Идентификатор : 1
Формат : AVC
Формат/Информация : Advanced Video Codec
Профиль формата : High@L4.1
Параметр CABAC формата : Да
Параметр ReFrames формата : 5 кадров
Идентификатор кодека : V_MPEG4/ISO/AVC
Продолжительность : 1 ч. 36 м.
Битрейт : 10,7 Мбит/сек
Ширина : 1920 пикселей
Высота : 800 пикселей
Соотношение сторон : 2,40:1
Режим частоты кадров : Постоянный
Частота кадров : 23,976 кадра/сек
Цветовое пространство : YUV
Субдискретизация насыщенности : 4:2:0
Битовая глубина : 8 бит
Тип развёртки : Прогрессивная
Бит/(Пиксели*Кадры) : 0.290
Размер потока : 7,22 Гбайт (80%)
Заголовок : CINEMANIA.CC
Библиотека кодирования : x264 core 138 r2358 9e941d1
Настройки программы : cabac=1 / ref=5 / deblock=1:-3:-3 / analyse=0x3:0x133 / me=umh / subme=10 / psy=1 / psy_rd=1.00:0.00 / mixed_ref=1 / me_range=48 / chroma_me=1 / trellis=2 / 8x8dct=1 / cqm=0 / deadzone=21,11 / fast_pskip=1 / chroma_qp_offset=-2 / threads=12 / lookahead_threads=2 / sliced_threads=0 / nr=0 / decimate=1 / interlaced=0 / bluray_compat=0 / constrained_intra=0 / bframes=8 / b_pyramid=2 / b_adapt=2 / b_bias=0 / direct=3 / weightb=1 / open_gop=0 / weightp=2 / keyint=240 / keyint_min=23 / scenecut=40 / intra_refresh=0 / rc_lookahead=90 / rc=crf / mbtree=0 / crf=16.6 / qcomp=0.60 / qpmin=0 / qpmax=69 / qpstep=4 / vbv_maxrate=50000 / vbv_bufsize=50000 / crf_max=0.0 / nal_hrd=none / ip_ratio=1.40 / pb_ratio=1.30 / aq=1:0.80
Язык : English
Default : Да
Forced : Нет
Аудио #1
Идентификатор : 2
Формат : AC-3
Формат/Информация : Audio Coding 3
Расширение режима : CM (complete main)
Параметр Endianness формата : Big
Идентификатор кодека : A_AC3
Продолжительность : 1 ч. 36 м.
Вид битрейта : Постоянный
Битрейт : 384 Кбит/сек
Каналы : 6 каналов
Расположение каналов : Front: L C R, Side: L R, LFE
Частота : 48,0 КГц
Битовая глубина : 16 бит
Метод сжатия : С потерями
Размер потока : 266 Мбайт (3%)
Заголовок : [студия 110/17]
Язык : Russian
Default : Да
Forced : Да
Аудио #2
Идентификатор : 3
Формат : AC-3
Формат/Информация : Audio Coding 3
Расширение режима : CM (complete main)
Параметр Endianness формата : Big
Идентификатор кодека : A_AC3
Продолжительность : 1 ч. 36 м.
Вид битрейта : Постоянный
Битрейт : 448 Кбит/сек
Каналы : 2 канала
Расположение каналов : Front: L R
Частота : 48,0 КГц
Битовая глубина : 16 бит
Метод сжатия : С потерями
Размер потока : 310 Мбайт (3%)
Заголовок : DeadSno & den904
Язык : Russian
Default : Нет
Forced : Нет
Аудио #3
Идентификатор : 4
Формат : DTS
Формат/Информация : Digital Theater Systems
Режим : 16
Параметр Endianness формата : Big
Идентификатор кодека : A_DTS
Продолжительность : 1 ч. 36 м.
Вид битрейта : Постоянный
Битрейт : 1509 Кбит/сек
Каналы : 6 каналов
Расположение каналов : Front: L C R, Side: L R, LFE
Частота : 48,0 КГц
Битовая глубина : 24 бит
Метод сжатия : С потерями
Размер потока : 1,02 Гбайт (11%)
Язык : English
Default : Нет
Forced : Нет
Меню
00:00:00.000 : en:00:00:00.000
00:05:35.502 : en:00:05:35.502
00:11:26.769 : en:00:11:26.769
00:17:12.114 : en:00:17:12.114
00:21:48.307 : en:00:21:48.307
00:28:34.963 : en:00:28:34.963
00:31:34.476 : en:00:31:34.476
00:38:53.331 : en:00:38:53.331
00:43:32.985 : en:00:43:32.985
00:47:46.572 : en:00:47:46.572
00:52:51.585 : en:00:52:51.585
00:59:53.799 : en:00:59:53.799
01:05:13.743 : en:01:05:13.743
01:11:50.807 : en:01:11:50.807
01:21:49.321 : en:01:21:49.321
01:29:40.834 : en:01:29:40.834

_________________
[Торрент-статистика]
[Профиль]  [ЛС] 
Показать сообщения:    
Ответить на тему

Текущее время: Сегодня 16:34

Часовой пояс: GMT + 4



Вы не можете начинать темы
Вы не можете отвечать на сообщения
Вы не можете редактировать свои сообщения
Вы не можете удалять свои сообщения
Вы не можете голосовать в опросах
Вы не можете прикреплять файлы к сообщениям
Вы не можете скачивать файлы