Судья Дредд / Judge Dredd (Дэнни Кэннон / Danny Cannon) [1995 г., боевик, криминальный фильм, научная фантастика, BDRip 720p] DUB + MVO + AVO + Original

Ответить на тему
 
Автор
Сообщение

awk05 ®

Пол:

Стаж: 8 лет 9 месяцев

Сообщений: 1334

Репутация: 278 [+] [-]

Откуда: Западная Украина Ривне

Пост 06-Мар-2014 22:39

[Цитировать] 

--Судья Дредд / Judge Dredd-- Страна: США
Жанр: боевик, криминальный фильм, научная фантастика
Год выпуска: 1995
Продолжительность: 01:36:07
Перевод : Профессиональный (многоголосый, одноголосый)
Русские субтитры: есть
Оригинальная аудиодорожка: Английская--
Режиссёр: Дэнни Кэннон / Danny Cannon--
В ролях: Сильвестр Сталлоне (Judge Joseph Dredd), Арманд Ассанте (Rico), Роб Шнайдер (Herman Ferguson), Юрген Прохнов (Judge Griffin), Макс Сюдов (Chief Justice Fargo), Дайан Лэйн (Judge Hershey), Джоэнна Майлз (Judge Evelyn McGruder), Джоан Чэнь (Ilsa), Бальтазар Гетти (Olmeyer), Морис Роевз (Warden Miller)--
Описание: В третьем тысячелетии мир переменился. Климат, народы — все перевернулось… Земля превратилась в ядовитую, выжженную пустыню, которую стали называть «Проклятая земля». Миллионы людей сосредоточились в нескольких огромных городах, на улицах которых царили хаос и преступники. Система правосудия не смогла справиться с анархией, и был создан новый порядок — элитные подразделения, которые сами задерживали, судили, выносили приговор и приводили его в исполнение. Их называли Судьями.--
Качество видео:BDRip 720p
Формат видео: MKV
Видео кодек: AVC (High@L4.1)
Аудио кодек: AC3, DTS
Видео: 1280x548 (2.35:1), 23,976 кадра/сек, 5800 Кбит/сек, 0.29 Бит/(Пиксели*Кадры)
Аудио 1: 6 каналов Front: L C R, Side: L R, LFE, 48,0 КГц, 448 Кбит/сек, 16 бит [RUS] DUB R5
Аудио 2: 2 канала Front: L R, 48,0 КГц, 192 Кбит/сек, 16 бит [RUS] MVO Twister
Аудио 3: 2 канала Front: L R, 48,0 КГц, 192 Кбит/сек, 16 бит [RUS] MVO Екатеринбург Арт
Аудио 4: 6 каналов Front: L C R, Side: L R, LFE, 48,0 КГц, 1536Кбит/сек, 24 бит [RUS] AVO С.Визгунов
Аудио 5: 6 каналов Front: L C R, Side: L R, LFE, 48,0 КГц, 640 Кбит/сек, 16 бит [RUS] AVO М.Иванов
Аудио 6: 6 каналов Front: L C R, Side: L R, LFE, 48,0 КГц, 1536Кбит/сек, 24 би [ENG]-- --

Знаете ли Вы, что...

* Дэнни Кэннон и Сильвестр Сталлоне часто спорили на съёмочной площадке из-за того, что Слай постоянно требовал вносить изменения в сценарий. По окончании съёмок Кеннон поклялся больше никогда не работать со звёздами.
* На ранней стадии разработки проекта на главную роль прочили Арнольда Шварценеггера, а на роль Рико - Кристофера Уокена.
* После того, как Джо Пеши отказался играть Ферджи, Сталлоне лично позвонил Робу Шнайдеру и пригласил его на эту роль.
* В числе потенциальных режиссёров картины изначально рассматривались Ренни Харлин, Ричард Доннер и братья Коэны.
* Заглавную песню для фильма должна была написать группа Manic Street Preachers, но в итоге этот проект был надолго заброшен, и песню «Judge Yourself» они выпустили только в 2003 году.
* Сцена, где Ферджи пошучивает над Дреддом, была полной импровизацией, но поскольку выглядело это довольно смешно, было решено оставить её в фильме.
* Дизайн боевого робота для фильма был взят из серии комиксов «ABC Warriors» издательства 2000 AD.
* Костюмы для судей были разработаны модельером Джанни Версаче.

Скриншоты



MediaInfo

Общее
Уникальный идентификатор : 210082747626851407443693302905994479440 (0x9E0C77276D82117BA6953783B6F80750)
Полное имя : G:\Films\Judge.Dredd.1995.Blu-ray.720p.x264.Rus.Eng.mkv
Формат : Matroska
Версия формата : Version 2
Размер файла : 6,91 Гбайт
Продолжительность : 1 ч. 36 м.
Общий поток : 10,3 Мбит/сек
Название фильма : HANSMER
Дата кодирования : UTC 2011-01-08 16:36:06
Программа кодирования : mkvmerge v4.4.0 ('Die Wiederkehr') сборка от Oct 31 2010 21:52:48
Библиотека кодирования : libebml v1.0.0 + libmatroska v1.0.0
Видео
Идентификатор : 1
Формат : AVC
Формат/Информация : Advanced Video Codec
Профиль формата : High@L4.1
Параметр CABAC формата : Да
Параметр ReFrames формата : 10 кадров
Идентификатор кодека : V_MPEG4/ISO/AVC
Продолжительность : 1 ч. 36 м.
Битрейт : 5800 Кбит/сек
Ширина : 1280 пикселей
Высота : 548 пикселей
Соотношение сторон : 2,35:1
Режим частоты кадров : Постоянный
Частота кадров : 23,976 кадра/сек
Цветовое пространство : YUV
Субдискретизация насыщенности : 4:2:0
Битовая глубина : 8 бит
Тип развёртки : Прогрессивная
Бит/(Пиксели*Кадры) : 0.345
Размер потока : 3,75 Гбайт (54%)
Заголовок : Judge.Dredd.1995.Blu-ray.720p.x264
Библиотека кодирования : x264 core 112 r1834 a51816a
Настройки программы : cabac=1 / ref=10 / deblock=1:-3:-3 / analyse=0x3:0x113 / me=esa / subme=10 / psy=1 / psy_rd=1.00:0.00 / mixed_ref=1 / me_range=32 / chroma_me=1 / trellis=2 / 8x8dct=1 / cqm=0 / deadzone=21,11 / fast_pskip=0 / chroma_qp_offset=-2 / threads=12 / sliced_threads=0 / nr=0 / decimate=1 / interlaced=0 / constrained_intra=0 / bframes=10 / b_pyramid=2 / b_adapt=2 / b_bias=0 / direct=3 / weightb=1 / open_gop=0 / weightp=2 / keyint=250 / keyint_min=23 / scenecut=40 / intra_refresh=0 / rc_lookahead=60 / rc=2pass / mbtree=0 / bitrate=5800 / ratetol=1.0 / qcomp=0.70 / qpmin=10 / qpmax=51 / qpstep=4 / cplxblur=20.0 / qblur=0.5 / vbv_maxrate=50000 / vbv_bufsize=62500 / ip_ratio=1.40 / pb_ratio=1.30 / aq=1:1.00 / nal_hrd=none
Язык : English
Default : Да
Forced : Нет
Коэффициенты матрицы : BT.709
Аудио #1
Идентификатор : 2
Формат : AC-3
Формат/Информация : Audio Coding 3
Расширение режима : CM (complete main)
Параметр Endianness формата : Big
Идентификатор кодека : A_AC3
Продолжительность : 1 ч. 36 м.
Вид битрейта : Постоянный
Битрейт : 448 Кбит/сек
Каналы : 6 каналов
Расположение каналов : Front: L C R, Side: L R, LFE
Частота : 48,0 КГц
Битовая глубина : 16 бит
Метод сжатия : С потерями
Размер потока : 308 Мбайт (4%)
Заголовок : R5
Язык : Russian
Default : Да
Forced : Нет
Аудио #2
Идентификатор : 3
Формат : AC-3
Формат/Информация : Audio Coding 3
Расширение режима : CM (complete main)
Параметр Endianness формата : Big
Идентификатор кодека : A_AC3
Продолжительность : 1 ч. 36 м.
Вид битрейта : Постоянный
Битрейт : 192 Кбит/сек
Каналы : 2 канала
Расположение каналов : Front: L R
Частота : 48,0 КГц
Битовая глубина : 16 бит
Метод сжатия : С потерями
Размер потока : 132 Мбайт (2%)
Заголовок : Twister
Язык : Russian
Default : Нет
Forced : Нет
Аудио #3
Идентификатор : 4
Формат : AC-3
Формат/Информация : Audio Coding 3
Расширение режима : CM (complete main)
Параметр Endianness формата : Big
Идентификатор кодека : A_AC3
Продолжительность : 1 ч. 36 м.
Вид битрейта : Постоянный
Битрейт : 192 Кбит/сек
Каналы : 2 канала
Расположение каналов : Front: L R
Частота : 48,0 КГц
Битовая глубина : 16 бит
Метод сжатия : С потерями
Размер потока : 132 Мбайт (2%)
Заголовок : EA
Язык : Russian
Default : Нет
Forced : Нет
Аудио #4
Идентификатор : 5
Формат : DTS
Формат/Информация : Digital Theater Systems
Режим : 16
Параметр Endianness формата : Big
Идентификатор кодека : A_DTS
Продолжительность : 1 ч. 36 м.
Вид битрейта : Постоянный
Битрейт : 1509 Кбит/сек
Каналы : 6 каналов
Расположение каналов : Front: L C R, Side: L R, LFE
Частота : 48,0 КГц
Битовая глубина : 16 бит
Метод сжатия : С потерями
Размер потока : 1,01 Гбайт (15%)
Заголовок : Vizgunov
Язык : Russian
Default : Нет
Forced : Нет
Аудио #5
Идентификатор : 6
Формат : AC-3
Формат/Информация : Audio Coding 3
Расширение режима : CM (complete main)
Параметр Endianness формата : Big
Идентификатор кодека : A_AC3
Продолжительность : 1 ч. 36 м.
Вид битрейта : Постоянный
Битрейт : 640 Кбит/сек
Каналы : 6 каналов
Расположение каналов : Front: L C R, Side: L R, LFE
Частота : 48,0 КГц
Битовая глубина : 16 бит
Метод сжатия : С потерями
Размер потока : 441 Мбайт (6%)
Заголовок : Ivanov
Язык : Russian
Default : Нет
Forced : Нет
Аудио #6
Идентификатор : 7
Формат : DTS
Формат/Информация : Digital Theater Systems
Режим : 16
Параметр Endianness формата : Big
Идентификатор кодека : A_DTS
Продолжительность : 1 ч. 36 м.
Вид битрейта : Постоянный
Битрейт : 1509 Кбит/сек
Каналы : 6 каналов
Расположение каналов : Front: L C R, Side: L R, LFE
Частота : 48,0 КГц
Битовая глубина : 16 бит
Метод сжатия : С потерями
Размер потока : 1,01 Гбайт (15%)
Язык : English
Default : Нет
Forced : Нет
Текст #1
Идентификатор : 8
Формат : UTF-8
Идентификатор кодека : S_TEXT/UTF8
Идентификатор кодека/Информация : UTF-8 Plain Text
Язык : Russian
Default : Нет
Forced : Нет
Текст #2
Идентификатор : 9
Формат : ASS
Идентификатор кодека : S_TEXT/ASS
Идентификатор кодека/Информация : Advanced Sub Station Alpha
Метод сжатия : Без потерь
Язык : English
Default : Нет
Forced : Нет
Меню
00:00:00.000 : en:00:00:00.000
00:02:17.346 : en:00:02:17.346
00:06:15.667 : en:00:06:15.667
00:09:50.006 : en:00:09:50.006
00:12:05.600 : en:00:12:05.600
00:15:39.105 : en:00:15:39.105
00:17:38.557 : en:00:17:38.557
00:20:55.129 : en:00:20:55.129
00:22:54.039 : en:00:22:54.039
00:27:59.970 : en:00:27:59.970
00:30:25.115 : en:00:30:25.115
00:35:43.850 : en:00:35:43.850
00:40:55.745 : en:00:40:55.745
00:43:56.676 : en:00:43:56.676
00:47:44.320 : en:00:47:44.320
00:55:22.194 : en:00:55:22.194
01:00:25.455 : en:01:00:25.455
01:03:07.701 : en:01:03:07.701
01:08:36.821 : en:01:08:36.821
01:14:08.110 : en:01:14:08.110
01:18:54.146 : en:01:18:54.146
01:23:53.654 : en:01:23:53.654
01:28:10.202 : en:01:28:10.202
01:30:24.836 : en:01:30:24.836

_________________
[Торрент-статистика]
[Профиль]  [ЛС] 
Показать сообщения:    
Ответить на тему

Текущее время: Сегодня 11:33

Часовой пояс: GMT + 4



Вы не можете начинать темы
Вы не можете отвечать на сообщения
Вы не можете редактировать свои сообщения
Вы не можете удалять свои сообщения
Вы не можете голосовать в опросах
Вы не можете прикреплять файлы к сообщениям
Вы не можете скачивать файлы