Хочу как ты / The Change-Up (Дэвид Добкин / David Dobkin) [2011, США, Комедия, BDRip 1080p]

Ответить на тему
 
Автор
Сообщение

diim ®

Пол:

Стаж: 6 лет 2 месяца

Сообщений: 1038

Репутация: 112 [+] [-]

Пост 24-Дек-2011 22:13

[Цитировать] 

Хочу как ты / The Change-Up
Страна: США
Жанр: Комедия
Год выпуска: 2011
Продолжительность: 01:52:32
Перевод: Профессиональный (Дублированный)
Оригинальная аудиодорожка
Cубтитры: Русские [Forced], Украинские, Английские
Режиссер: Дэвид Добкин
В ролях: Райан Рейнольдс, Джейсон Бейтман, Лесли Манн, Оливия Уайлд, Алан Аркин, Мирчи Монро, Грегори Итцин, Нед Шмидтке, Ло Минг, Сидни Рувьер и др.
Описание: В детстве Митч и Дейв были неразлучными друзьями. Но со временем их дороги разошлись. Дейв стал успешным юристом и примерным семьянином. Митч же остался холостяком и сердцеедом. Он считает, что у друга есть все, о чем только можно мечтать: прекрасная жена Джейми, любящие дети и крутая работа. Дейву же представляется сказочной беззаботная жизнь Митча, который днем курит травку, а ночи проводит в компании красивых женщин.
Но однажды в жизни друзей все переворачивается вверх дном: Митч становится Дейвом, а Дейв — Митчем.
Митчу приходится заняться воспитанием троих детей Дейва и взять на себя его работу. На носу — крупная сделка, от результатов которой зависит карьера его друга, но Митч не смыслит в этом ничего.
Ситуацию также усложняет обворожительная коллега Дейва, Сабрина, которая не дает прохода Митчу. Старый Митч пошел бы на все, чтобы провести время с этой девушкой. Проблема лишь в том, что в его теле живет Дейв, идеальный муж и папаша, который не может расслабиться ни на минуту.
Друзья вскоре понимают, что реальность не такая радужная, как фантазии.
Героям придется как следует постараться, чтобы вернуть все на свое место и не разрушить окончательно жизни друг друга.-Качество: BDRip 1080p
Формат: MKV
Видео: MPEG-4 AVC, 10,1 Mbps 1920x800, 23.976 кадр/с
Аудио: Русский (AC3 / 6ch / 48 kHz / 384 kbps / 16-bit)
Аудио: Английский (DTS / 6ch / 48 kHz / 1510 kbps / 24-bit)

Скриншоты

Mi

Format : Matroska
Format version : Version 2
File size : 9.44 GiB
Duration : 1h 52mn
Overall bit rate : 12.0 Mbps
Movie name : Hochu.kak.ty.2011.D.BDRip.1080p.UNIONGANG.TV
Encoded date : UTC 2011-12-24 06:54:31
Writing application : mkvmerge v5.1.0 ('And so it goes') built on Nov 28 2011 23:58:28
Writing library : libebml v1.2.3 + libmatroska v1.3.0
Video
ID : 1
Format : AVC
Format/Info : Advanced Video Codec
Format profile : High@L4.1
Format settings, CABAC : Yes
Format settings, ReFrames : 5 frames
Codec ID : V_MPEG4/ISO/AVC
Duration : 1h 52mn
Bit rate : 10.1 Mbps
Width : 1 920 pixels
Height : 800 pixels
Display aspect ratio : 2.40:1
Frame rate : 23.976 fps
Color space : YUV
Chroma subsampling : 4:2:0
Bit depth : 8 bits
Scan type : Progressive
Bits/(Pixel*Frame) : 0.275
Stream size : 7.77 GiB (82%)
Title : Hochu.kak.ty.2011.D.BDRip.1080p.UNIONGANG.TV
Writing library : x264 core 119 r2106 07efeb4
Encoding settings : cabac=1 / ref=5 / deblock=1:-3:-3 / analyse=0x3:0x133 / me=umh / subme=9 / psy=1 / psy_rd=1.05:0.15 / mixed_ref=1 / me_range=32 / chroma_me=1 / trellis=1 / 8x8dct=1 / cqm=0 / deadzone=21,11 / fast_pskip=0 / chroma_qp_offset=-3 / threads=6 / sliced_threads=0 / nr=0 / decimate=1 / interlaced=0 / bluray_compat=0 / constrained_intra=0 / bframes=5 / b_pyramid=2 / b_adapt=2 / b_bias=0 / direct=3 / weightb=1 / open_gop=0 / weightp=2 / keyint=250 / keyint_min=23 / scenecut=40 / intra_refresh=0 / rc_lookahead=50 / rc=2pass / mbtree=1 / bitrate=10122 / ratetol=1.0 / qcomp=0.70 / qpmin=10 / qpmax=51 / qpstep=4 / cplxblur=20.0 / qblur=0.5 / ip_ratio=1.40 / aq=1:1.00
Language : English
Audio #1
ID : 2
Format : AC-3
Format/Info : Audio Coding 3
Mode extension : CM (complete main)
Codec ID : A_AC3
Duration : 1h 52mn
Bit rate mode : Constant
Bit rate : 384 Kbps
Channel(s) : 6 channels
Channel positions : Front: L C R, Side: L R, LFE
Sampling rate : 48.0 KHz
Bit depth : 16 bits
Compression mode : Lossy
Stream size : 309 MiB (3%)
Title : Dub R5
Language : Russian
Audio #2
ID : 3
Format : DTS
Format/Info : Digital Theater Systems
Codec ID : A_DTS
Duration : 1h 52mn
Bit rate mode : Constant
Bit rate : 1 510 Kbps
Channel(s) : 6 channels
Channel positions : Front: L C R, Side: L R, LFE
Sampling rate : 48.0 KHz
Bit depth : 24 bits
Compression mode : Lossy
Stream size : 1.19 GiB (13%)
Language : English
Text #1
ID : 4
Format : UTF-8
Codec ID : S_TEXT/UTF8
Codec ID/Info : UTF-8 Plain Text
Language : Russian
Text #2
ID : 5
Format : UTF-8
Codec ID : S_TEXT/UTF8
Codec ID/Info : UTF-8 Plain Text
Language : Ukrainian
Text #3
ID : 6
Format : UTF-8
Codec ID : S_TEXT/UTF8
Codec ID/Info : UTF-8 Plain Text
Language : English
[Торрент-статистика]
[Профиль]  [ЛС] 
Показать сообщения:    
Ответить на тему

Текущее время: Сегодня 04:52

Часовой пояс: GMT + 4



Вы не можете начинать темы
Вы не можете отвечать на сообщения
Вы не можете редактировать свои сообщения
Вы не можете удалять свои сообщения
Вы не можете голосовать в опросах
Вы не можете прикреплять файлы к сообщениям
Вы не можете скачивать файлы