Я, Франкенштейн / I, Frankenstein (Стюарт Битти / Stuart Beattie) [2014, США, Австралия, фэнтези, боевик, приключения, BDRip 720p] Dub [Лицензия]

Ответить на тему
 
Автор
Сообщение

awk05 ®

Пол:

Стаж: 4 года 5 месяцев

Сообщений: 1352

Репутация: 275 [+] [-]

Откуда: Западная Украина Ривне

Пост 01-Мар-2014 15:33

[Цитировать] 

--Я, Франкенштейн / I, Frankenstein-- Страна: США, Австралия / Hopscotch Features, Lakeshore Entertainment, Sidney Kimmel Entertainment
Жанр: фэнтези, боевик, приключения
Год выпуска: 2014
Продолжительность: 1:33:03
Перевод: Профессиональный (дублированный) [лицензия]
Cубтитры: нет--Режиссер: Стюарт Битти / Stuart Beattie--
В ролях: Аарон Экхарт (Adam), Ивонн Страховски (Terra), Миранда Отто (Leonore), Билл Найи (Naberius), Джай Кортни (Gideon), Сократис Отто (Zuriel), Аден Янг (Victor Frankenstein), Кэйтлин Стэйси (Keziah), Махеш Джаду (Ophir), Стив Музакис (Helek), Николас Белл (Carl Avery), Дениз Акдениз (Barachel), Крис Пэнг (Levi), Кевин Гревье ( Dekar)--
Описание: Он — монстр. Он — двухсотлетний плод безумной фантазии своего создателя. Он — легенда. Мир, в котором он живет, населен древними горгульями и бессмертными демонами, которые сражаются за обладание человечеством. Величественные соборы скрывают огромные арсеналы, за дверьми научных лабораторий проводятся эксперименты по воскрешению мертвых. Война двух кланов могущественных существ достигает своего пика. И только он, Адам, монстр Франкенштейна, в силах ее остановить.--
Качество видео:BDRip 720p
Формат видео: MKV
Видео кодек: AVC (High@L4.1)
Аудио кодек: AC3 / DTS
Видео: 1280x536 (2,40:1), 23,976 кадра/сек, 4300 Кбит/сек, 0.261 Бит/(Пиксели*Кадры)
Аудио 1: 6 каналов Front: L C R, Side: L R, LFE, 48,0 КГц, 448 Кбит/сек, 16 бит [RUS]
Аудио 2: 6 каналов Front: L C R, Side: L R, LFE, 48,0 КГц, 1509 Кбит/сек, 24 бит [ENG]-- --

Знаете ли вы, что...

Идея фильма «Я, Франкенштейн» родилась в воображении сценариста, писателя и актера Кевина Гревье, который в одном из своих графических романов перенес монстра, созданного Франкенштейном, на несколько столетий вперед в обстановку пугающего современного города.

MediaInfo

Общее
Уникальный идентификатор : 225116026718377750817971919133806156487 (0xA95BC509DE7B73D08FC6CC8038CFDAC7)
Полное имя : C:Ya.Frankenstein.2014.720p.CMEGRoup.mkv
Формат : Matroska
Версия формата : Version 2
Размер файла : 4,07 Гбайт
Продолжительность : 1 ч. 33 м.
Общий поток : 6258 Кбит/сек
Название фильма : CMEGRoup
Дата кодирования : UTC 2014-03-01 05:17:30
Программа кодирования : mkvmerge v6.7.0 ('Back to the Ground') 64bit built on Jan 8 2014 15:10:52
Библиотека кодирования : libebml v1.3.0 + libmatroska v1.4.1
Видео
Идентификатор : 1
Формат : AVC
Формат/Информация : Advanced Video Codec
Профиль формата : High@L4.1
Параметр CABAC формата : Да
Параметр ReFrames формата : 10 кадров
Идентификатор кодека : V_MPEG4/ISO/AVC
Продолжительность : 1 ч. 33 м.
Битрейт : 4300 Кбит/сек
Ширина : 1280 пикселей
Высота : 536 пикселей
Соотношение сторон : 2,40:1
Режим частоты кадров : Постоянный
Частота кадров : 23,976 кадра/сек
Цветовое пространство : YUV
Субдискретизация насыщенности : 4:2:0
Битовая глубина : 8 бит
Тип развёртки : Прогрессивная
Бит/(Пиксели*Кадры) : 0.261
Размер потока : 2,71 Гбайт (67%)
Заголовок : CMEGRoup
Библиотека кодирования : x264 core 138 r2358 9e941d1
Настройки программы : cabac=1 / ref=10 / deblock=1:-3:-3 / analyse=0x3:0x113 / me=umh / subme=11 / psy=1 / psy_rd=1.00:0.00 / mixed_ref=1 / me_range=32 / chroma_me=1 / trellis=2 / 8x8dct=1 / cqm=0 / deadzone=21,11 / fast_pskip=1 / chroma_qp_offset=-2 / threads=6 / lookahead_threads=1 / sliced_threads=0 / nr=0 / decimate=1 / interlaced=0 / bluray_compat=0 / constrained_intra=0 / bframes=5 / b_pyramid=2 / b_adapt=1 / b_bias=0 / direct=2 / weightb=1 / open_gop=0 / weightp=2 / keyint=240 / keyint_min=23 / scenecut=40 / intra_refresh=0 / rc_lookahead=40 / rc=2pass / mbtree=1 / bitrate=4300 / ratetol=1.0 / qcomp=0.60 / qpmin=0 / qpmax=69 / qpstep=4 / cplxblur=20.0 / qblur=0.5 / vbv_maxrate=62500 / vbv_bufsize=78125 / nal_hrd=none / ip_ratio=1.40 / aq=1:1.00 / zones=119831,133872,q=40
Язык : English
Default : Да
Forced : Нет
Аудио #1
Идентификатор : 2
Формат : AC-3
Формат/Информация : Audio Coding 3
Расширение режима : CM (complete main)
Параметр Endianness формата : Big
Идентификатор кодека : A_AC3
Продолжительность : 1 ч. 33 м.
Вид битрейта : Постоянный
Битрейт : 448 Кбит/сек
Каналы : 6 каналов
Расположение каналов : Front: L C R, Side: L R, LFE
Частота : 48,0 КГц
Битовая глубина : 16 бит
Метод сжатия : С потерями
Размер потока : 298 Мбайт (7%)
Язык : Russian
Default : Да
Forced : Нет
Аудио #2
Идентификатор : 3
Формат : DTS
Формат/Информация : Digital Theater Systems
Режим : 16
Параметр Endianness формата : Big
Идентификатор кодека : A_DTS
Продолжительность : 1 ч. 33 м.
Вид битрейта : Постоянный
Битрейт : 1509 Кбит/сек
Каналы : 6 каналов
Расположение каналов : Front: L C R, Side: L R, LFE
Частота : 48,0 КГц
Битовая глубина : 16 бит
Метод сжатия : С потерями
Размер потока : 1004 Мбайт (24%)
Default : Нет
Forced : Нет
Меню
00:00:00.000 : en:00:00:00.000
00:12:24.077 : en:00:12:24.077
00:22:07.785 : en:00:22:07.785
00:33:21.958 : en:00:33:21.958
00:44:51.772 : en:00:44:51.772
00:56:45.527 : en:00:56:45.527
01:07:12.487 : en:01:07:12.487
01:21:14.661 : en:01:21:14.661

Скриншоты


_________________
[Торрент-статистика]
[Профиль]  [ЛС] 

sergei78

Пол:

Стаж: 3 года 2 месяца

Сообщений: 92

Репутация: 120 [+] [-]

Откуда: Бывший СССР: "Связист Кстово 100/40"

Пост 01-Мар-2014 16:38 (спустя 1 час 4 минуты)

[Цитировать] 

А че так рано вышла лицензия.?
Вроде лицензия должна выйти в середине Марта !
[Торрент-статистика]
[Профиль]  [ЛС] 

ArtZak

Пол:

Стаж: 5 лет 1 месяц

Сообщений: 3008

Репутация: 1363 [+] [-]

Откуда: Россия

Пост 01-Мар-2014 17:01 (спустя 22 минуты)

[Цитировать] 

sergei78, US Transfer...
[Торрент-статистика]
[Профиль]  [ЛС] 
Показать сообщения:    
Ответить на тему

Текущее время: Сегодня 22:07

Часовой пояс: GMT + 4



Вы не можете начинать темы
Вы не можете отвечать на сообщения
Вы не можете редактировать свои сообщения
Вы не можете удалять свои сообщения
Вы не можете голосовать в опросах
Вы не можете прикреплять файлы к сообщениям
Вы не можете скачивать файлы