Воровка книг / The Book Thief (Брайан Персивал / Brian Percival) [2013 г., драма, военный, BDRip 720p] Dub [Лицензия] + Original (ENG) + Subs (RUS, ENG)

Ответить на тему
 
Автор
Сообщение

TiZAr ®

Пол:

Стаж: 7 лет 7 месяцев

Сообщений: 815

Репутация: 1160 [+] [-]

Откуда: Россия

Пост 01-Мар-2014 05:45

[Цитировать] 

Воровка книг / The Book Thief
«Отвага без лишних слов»
- Год выпуска: 2013
Страна: США, Германия / Fox 2000 Pictures, Studio Babelsberg
Жанр: драма, военный
Продолжительность: 02:11:00
Перевод: Профессиональный (полное дублирование)
Качество перевода: Лицензия
Cубтитры: русские, английские
Оригинальная аудиодорожка: английская
Навигация по главам: Есть
Режиссер: Брайан Персивал / Brian Percival- -В ролях:
Эмили Уотсон, Джеффри Раш, Софи Нелисс, Бен Шнетцер, Нико Лирш, Керстен Блок, Сандра Неделефф, Йоахим Пауль Ассбёк, Хильдегард Шредтер, Карина Визе, Арнольд Веглорц, Лудгер Бёкельман, Рафаэль Гарайзен, Матиас Матшке, Мари Бурхард, Левин Лайам, Майк Маас, Нозоми Лайнус Кайсар, Годехард Гизе, Готард Ланге, Райнер Рейнерс, Ян Андрес, Норберт Месмер, Мартин Онтроп и др.
Описание:
Германия, начало 1939 года, канун Второй мировой войны. Смерть готовится начать свою жатву. Девятилетняя Лизель переезжает в Мюнхен к своим приемным родителям и с их помощью учится читать. С каждым днем чтение становится ее жизненной потребностью, и Лизель начинает воровать книги — единственную отраду ее жизни. Все, что она узнает из них, помогает ей понять события, происходящие вокруг нее — гонение на евреев, антифашистское движение, унижения и голод. Все это, в конце концов, сложится в ее собственную историю, историю ее жизни.
Качество: BDRip 720p
Формат: MKV
Видео: AVC, 1280x534 (2.35:1), 23.976 fps, 5 300 Kbps (0.323 bit/pixel)
Аудио #1: AC-3, 48.0 KHz, 6 ch, 448 Kbps, CBR (Russian)
Аудио #2: DTS, 48.0 KHz, 6 ch, 755 Kbps, CBR (Russian)
Аудио #3: DTS, 48.0 KHz, 6 ch, 1 510 Kbps, CBR (English)

MI

Код:
General
Unique ID                                : 183104533134571437684784193173484783557 (0x89C0A67C2342F45389050D706628C7C5)
Complete name                            : E:\downloads\The.Book.Thief.2013.BluRay.720p.DTS-HDWinG.mkv
Format                                   : Matroska
Format version                           : Version 2
File size                                : 7.34 GiB
Duration                                 : 2h 10mn
Overall bit rate                         : 8 027 Kbps
Encoded date                             : UTC 2014-02-27 23:23:38
Writing application                      : mkvmerge v6.7.0 ('Back to the Ground') 64bit built on Jan  8 2014 15:10:52
Writing library                          : libebml v1.3.0 + libmatroska v1.4.1
Video
ID                                       : 1
Format                                   : AVC
Format/Info                              : Advanced Video Codec
Format profile                           : High@L4.1
Format settings, CABAC                   : Yes
Format settings, ReFrames                : 12 frames
Codec ID                                 : V_MPEG4/ISO/AVC
Duration                                 : 2h 10mn
Bit rate                                 : 5 300 Kbps
Width                                    : 1 280 pixels
Height                                   : 534 pixels
Display aspect ratio                     : 2.40:1
Frame rate mode                          : Constant
Frame rate                               : 23.976 fps
Color space                              : YUV
Chroma subsampling                       : 4:2:0
Bit depth                                : 8 bits
Scan type                                : Progressive
Bits/(Pixel*Frame)                       : 0.323
Stream size                              : 4.70 GiB (64%)
Writing library                          : x264 core 140 r2377+40 929f149 tMod [8-bit@4:2:0 X86_64]
Encoding settings                        : cabac=1 / ref=12 / deblock=1:-3:-3 / analyse=0x3:0x113 / me=umh / subme=10 / psy=1 / fade_compensate=0.00 / psy_rd=1.10:0.00 / mixed_ref=1 / me_range=32 / chroma_me=1 / trellis=2 / 8x8dct=1 / cqm=0 / deadzone=21,11 / fast_pskip=0 / chroma_qp_offset=-2 / threads=18 / lookahead_threads=3 / sliced_threads=0 / nr=0 / decimate=0 / interlaced=0 / bluray_compat=0 / constrained_intra=0 / fgo=0 / bframes=8 / b_pyramid=2 / b_adapt=2 / b_bias=0 / direct=3 / weightb=1 / open_gop=0 / weightp=2 / keyint=240 / keyint_min=24 / scenecut=40 / intra_refresh=0 / rc=2pass / mbtree=0 / bitrate=5300 / ratetol=1.0 / qcomp=0.70 / qpmin=0:0:0 / qpmax=69:69:69 / qpstep=4 / cplxblur=20.0 / qblur=0.5 / ip_ratio=1.20 / pb_ratio=1.20 / aq=4:0.85 / aq-sensitivity=10.00 / aq-factor=1.00:1.00:1.00 / aq2=0 / aq3=0
Language                                 : English
Default                                  : Yes
Forced                                   : No
Audio #1
ID                                       : 2
Format                                   : AC-3
Format/Info                              : Audio Coding 3
Mode extension                           : CM (complete main)
Format settings, Endianness              : Big
Codec ID                                 : A_AC3
Duration                                 : 2h 10mn
Bit rate mode                            : Constant
Bit rate                                 : 448 Kbps
Channel count                            : 6 channels
Channel positions                        : Front: L C R, Side: L R, LFE
Sampling rate                            : 48.0 KHz
Bit depth                                : 16 bits
Compression mode                         : Lossy
Stream size                              : 420 MiB (6%)
Language                                 : Russian
Default                                  : Yes
Forced                                   : No
Audio #2
ID                                       : 3
Format                                   : DTS
Format/Info                              : Digital Theater Systems
Mode                                     : 16
Format settings, Endianness              : Big
Codec ID                                 : A_DTS
Duration                                 : 2h 10mn
Bit rate mode                            : Constant
Bit rate                                 : 768 Kbps
Channel count                            : 6 channels
Channel positions                        : Front: L C R, Side: L R, LFE
Sampling rate                            : 48.0 KHz
Bit depth                                : 24 bits
Compression mode                         : Lossy
Stream size                              : 720 MiB (10%)
Language                                 : Russian
Default                                  : No
Forced                                   : No
Audio #3
ID                                       : 4
Format                                   : DTS
Format/Info                              : Digital Theater Systems
Mode                                     : 16
Format settings, Endianness              : Big
Codec ID                                 : A_DTS
Duration                                 : 2h 10mn
Bit rate mode                            : Constant
Bit rate                                 : 1 509 Kbps
Channel count                            : 6 channels
Channel positions                        : Front: L C R, Side: L R, LFE
Sampling rate                            : 48.0 KHz
Bit depth                                : 24 bits
Compression mode                         : Lossy
Stream size                              : 1.38 GiB (19%)
Language                                 : English
Default                                  : No
Forced                                   : No
Text #1
ID                                       : 5
Format                                   : UTF-8
Codec ID                                 : S_TEXT/UTF8
Codec ID/Info                            : UTF-8 Plain Text
Language                                 : Russian
Default                                  : Yes
Forced                                   : Yes
Text #2
ID                                       : 6
Format                                   : UTF-8
Codec ID                                 : S_TEXT/UTF8
Codec ID/Info                            : UTF-8 Plain Text
Language                                 : Russian
Default                                  : No
Forced                                   : No
Text #3
ID                                       : 7
Format                                   : UTF-8
Codec ID                                 : S_TEXT/UTF8
Codec ID/Info                            : UTF-8 Plain Text
Title                                    : English
Default                                  : No
Forced                                   : No
Text #4
ID                                       : 8
Format                                   : UTF-8
Codec ID                                 : S_TEXT/UTF8
Codec ID/Info                            : UTF-8 Plain Text
Title                                    : Forced
Language                                 : English
Default                                  : No
Forced                                   : No
Menu
00:00:00.000                             : en:00:00:00.000
00:03:50.230                             : en:00:03:50.230
00:07:58.061                             : en:00:07:58.061
00:10:27.126                             : en:00:10:27.126
00:13:42.405                             : en:00:13:42.405
00:17:54.949                             : en:00:17:54.949
00:20:17.591                             : en:00:20:17.591
00:23:01.380                             : en:00:23:01.380
00:24:57.746                             : en:00:24:57.746
00:26:58.158                             : en:00:26:58.158
00:30:54.811                             : en:00:30:54.811
00:34:01.164                             : en:00:34:01.164
00:39:21.859                             : en:00:39:21.859
00:43:00.870                             : en:00:43:00.870
00:45:09.999                             : en:00:45:09.999
00:50:59.056                             : en:00:50:59.056
00:52:18.761                             : en:00:52:18.761
00:54:55.709                             : en:00:54:55.709
00:59:04.624                             : en:00:59:04.624
01:02:16.232                             : en:01:02:16.232
01:05:42.564                             : en:01:05:42.564
01:08:20.513                             : en:01:08:20.513
01:12:41.983                             : en:01:12:41.983
01:18:14.857                             : en:01:18:14.857
01:23:50.025                             : en:01:23:50.025
01:27:59.399                             : en:01:27:59.399
01:30:46.274                             : en:01:30:46.274
01:36:25.405                             : en:01:36:25.405
01:40:48.584                             : en:01:40:48.584
01:43:54.812                             : en:01:43:54.812
01:47:24.104                             : en:01:47:24.104
01:49:38.405                             : en:01:49:38.405
01:54:24.274                             : en:01:54:24.274
02:02:10.949                             : en:02:02:10.949
02:03:13.386                             : en:02:03:13.386
02:05:21.514                             : en:02:05:21.514

Скриншоты



_________________
Не стоит обращать внимания на отсутствие сидов на моих раздачах. Все мои релизы мультитрекерные - нет сидов, включите DHT.
За релизами в HD качестве обращайтесь в личку, либо отписывайтесь в теме.
[Торрент-статистика]
[Профиль]  [ЛС] 
Показать сообщения:    
Ответить на тему

Текущее время: Сегодня 11:27

Часовой пояс: GMT + 4



Вы не можете начинать темы
Вы не можете отвечать на сообщения
Вы не можете редактировать свои сообщения
Вы не можете удалять свои сообщения
Вы не можете голосовать в опросах
Вы не можете прикреплять файлы к сообщениям
Вы не можете скачивать файлы