Ранчо Скинуокер / Skinwalker Ranch (Девин МакДжинн / Devin McGinn) [2013 г., ужасы, фантастика, триллер, BDRip 720p] VO [VANO] + Original (ENG) + Sub (ENG)

Ответить на тему
 
Автор
Сообщение

TiZAr ®

Пол:

Стаж: 3 года 3 месяца

Сообщений: 836

Репутация: 1157 [+] [-]

Откуда: Россия

Пост 01-Мар-2014 05:31

[Цитировать] 

Ранчо Скинуокер / Skinwalker Ranch
«There is a place The Unexplained calls home»
- Год выпуска: 2013
Страна: США / DeepStudios
Жанр: ужасы, фантастика, триллер
Продолжительность: 01:20:46
Перевод: Любительский (одноголосый) [VANO]
Субтитры: английские
Оригинальная аудиодорожка: английская
Навигация по главам: Есть
Режиссер: Девин МакДжинн / Devin McGinn- -В ролях:
Taylor Bateman, Стив Берг, Michael Black, Эрин Кехилл, Carol Call, Кайл Дэвис, Mike Flynn, Джон Грайз, Майкл Хорс, Nash Lucas и др.
Описание:
Фильм в стиле "найденные пленки", якобы основанный на реальных событиях, связанных с НЛО и случившихся на ранчо Скинуокер.
Отважная группа уфологов-исследователей ищет следы инопланетян и снимает на видео доказательства сверхъестественных проявлений. Они будут вести расследование мистической пропажи десятилетнего сына местного фермера...
Релиз группы:

Качество: BDRip 720p | Сэмпл
Формат: MKV
Видео: AVC, 1280x720 (16:9), 23.976 fps, 4 701 Kbps (0.213 bit/pixel)
Аудио #1: AC-3, 48.0 KHz, 2 ch, 192 Kbps, CBR (Russian)
Аудио #2: DTS, 48.0 KHz, 6 ch, 1 510 Kbps, CBR (English)

MI

Код:
General
Unique ID                                : 233427895423020388029469788399089867509 (0xAF9C93CE322216F7897364B6642DDAF5)
Complete name                            : E:\downloads\Skinwalker.Ranch.2013.Blu.Ray.720p.CINEMANIA.mkv
Format                                   : Matroska
Format version                           : Version 4 / Version 2
File size                                : 3.61 GiB
Duration                                 : 1h 20mn
Overall bit rate                         : 6 403 Kbps
Movie name                               : Release Group CINEMANIA
Encoded date                             : UTC 2014-02-26 15:01:07
Writing application                      : mkvmerge v6.7.0 ('Back to the Ground') 64bit built on Jan  8 2014 15:10:52
Writing library                          : libebml v1.3.0 + libmatroska v1.4.1
Video
ID                                       : 1
Format                                   : AVC
Format/Info                              : Advanced Video Codec
Format profile                           : High@L4.1
Format settings, CABAC                   : Yes
Format settings, ReFrames                : 9 frames
Codec ID                                 : V_MPEG4/ISO/AVC
Duration                                 : 1h 20mn
Bit rate                                 : 4 701 Kbps
Width                                    : 1 280 pixels
Height                                   : 720 pixels
Display aspect ratio                     : 16:9
Frame rate mode                          : Constant
Frame rate                               : 23.976 fps
Color space                              : YUV
Chroma subsampling                       : 4:2:0
Bit depth                                : 8 bits
Scan type                                : Progressive
Bits/(Pixel*Frame)                       : 0.213
Stream size                              : 2.58 GiB (71%)
Title                                    : Release Group CINEMANIA
Writing library                          : x264 core 138 r2356 a1d3d17
Encoding settings                        : cabac=1 / ref=9 / deblock=1:-3:-3 / analyse=0x3:0x113 / me=umh / subme=10 / psy=1 / psy_rd=1.00:0.05 / mixed_ref=1 / me_range=32 / chroma_me=1 / trellis=2 / 8x8dct=1 / cqm=0 / deadzone=21,11 / fast_pskip=0 / chroma_qp_offset=-2 / threads=18 / lookahead_threads=1 / sliced_threads=0 / nr=0 / decimate=1 / interlaced=0 / bluray_compat=0 / constrained_intra=0 / bframes=4 / b_pyramid=2 / b_adapt=2 / b_bias=0 / direct=3 / weightb=1 / open_gop=0 / weightp=2 / keyint=250 / keyint_min=23 / scenecut=40 / intra_refresh=0 / rc=2pass / mbtree=0 / bitrate=4701 / ratetol=1.0 / qcomp=0.70 / qpmin=0 / qpmax=69 / qpstep=4 / cplxblur=20.0 / qblur=0.5 / ip_ratio=1.40 / pb_ratio=1.30 / aq=2:0.90
Language                                 : English
Default                                  : Yes
Forced                                   : No
Audio #1
ID                                       : 2
Format                                   : AC-3
Format/Info                              : Audio Coding 3
Mode extension                           : CM (complete main)
Format settings, Endianness              : Big
Codec ID                                 : A_AC3
Duration                                 : 1h 20mn
Bit rate mode                            : Constant
Bit rate                                 : 192 Kbps
Channel count                            : 2 channels
Channel positions                        : Front: L R
Sampling rate                            : 48.0 KHz
Bit depth                                : 16 bits
Compression mode                         : Lossy
Stream size                              : 111 MiB (3%)
Title                                    : VANO
Language                                 : Russian
Default                                  : Yes
Forced                                   : Yes
Audio #2
ID                                       : 3
Format                                   : DTS
Format/Info                              : Digital Theater Systems
Mode                                     : 16
Format settings, Endianness              : Big
Codec ID                                 : A_DTS
Duration                                 : 1h 20mn
Bit rate mode                            : Constant
Bit rate                                 : 1 509 Kbps
Channel count                            : 6 channels
Channel positions                        : Front: L C R, Side: L R, LFE
Sampling rate                            : 48.0 KHz
Bit depth                                : 24 bits
Compression mode                         : Lossy
Stream size                              : 872 MiB (24%)
Language                                 : English
Default                                  : No
Forced                                   : No
Text
ID                                       : 4
Format                                   : UTF-8
Codec ID                                 : S_TEXT/UTF8
Codec ID/Info                            : UTF-8 Plain Text
Language                                 : English
Default                                  : No
Forced                                   : No
Menu
00:00:00.000                             : en:00:00:00.000
00:10:49.315                             : en:00:10:49.315
00:28:36.757                             : en:00:28:36.757
00:45:19.216                             : en:00:45:19.216
01:00:23.537                             : en:01:00:23.537
01:10:45.491                             : en:01:10:45.491

Скриншоты


_________________
Не стоит обращать внимания на отсутствие сидов на моих раздачах. Все мои релизы мультитрекерные - нет сидов, включите DHT.
За релизами в HD качестве обращайтесь в личку, либо отписывайтесь в теме.
[Торрент-статистика]
[Профиль]  [ЛС] 
Показать сообщения:    
Ответить на тему

Текущее время: Сегодня 00:26

Часовой пояс: GMT + 4



Вы не можете начинать темы
Вы не можете отвечать на сообщения
Вы не можете редактировать свои сообщения
Вы не можете удалять свои сообщения
Вы не можете голосовать в опросах
Вы не можете прикреплять файлы к сообщениям
Вы не можете скачивать файлы