Тайна Рагнарока / Gåten Ragnarok (Миккел Бренне Сандемус / Mikkel Brænne Sandemose) [2013 г., боевик, приключения, BDRip 1080p] DVO [den904&DeadSno] + Original (NOR) + Subs (RUS, ENG)

Ответить на тему
 
Автор
Сообщение

TiZAr ®

Пол:

Стаж: 7 лет 7 месяцев

Сообщений: 815

Репутация: 1160 [+] [-]

Откуда: Россия

Пост 01-Мар-2014 05:10

[Цитировать] 

Тайна Рагнарока / Gåten Ragnarok
«All myths have an origin»
- Год выпуска: 2013
Страна: Норвегия / Fantefilm
Жанр: боевик, приключения
Продолжительность: 01:41:07
Перевод: Любительский (двухголосый, закадровый) [den904&DeadSno]
Перевод на русский язык: [Mannenr]
Субтитры: Русские [Mannenr], Английские
Оригинальная аудиодорожка: норвежская
Навигация по главам: Есть
Режиссер: Миккел Бренне Сандемус / Mikkel Brænne Sandemose- -В ролях:
Пол Сверре Валхейм Хаген, Николай Клеве Брош, Бьорн Сундквист, София Хелин, Мария Аннетт Тандерод Берглид, Джулиан Подольски, Йенс Хультен, Терье Стрёмдаль, Вера Руди и др.
Описание:
Археолог Сигерд Свендсен уже много лет одержим историей судна викингов Осберг. Единственная надпись, найденная на этом корабле написана на языке рун и гласит: «человек знает мало». Сигерд уверен, что судно Осберг скрывает ответ на тайну о Рагнароке — конце дней в норвежской мифологии. Когда его друг Аллан находит подобные руны на камне с севера Норвегии, Сигерд убеждается, что руны — это карта сокровищ. Вместе они отправляются в экспедицию, которая заводит их в «нейтральную зону» между Норвегией и Россией, которая не населена уже многие десятилетия. Здесь Сигерд находит истинное значение рун, которые хранят ужасающую тайну.
Релиз группы:

Качество: BDRip 1080p | Сэмпл
Формат: MKV
Видео: AVC, 1920x800 (2.40:1), 24.000 fps, 9 480 Kbps (0.257 bit/pixel)
Аудио #1: DTS, 48.0 KHz, 6 ch, 1 510 Kbps, CBR (Russian)
Аудио #2: DTS, 48.0 KHz, 6 ch, 1 510 Kbps, CBR (Norwegian)

MI

Код:
General
Unique ID                                : 247422229109922428180922074872456434037 (0xBA23C9BA0A0D308281DAE293D4E45175)
Complete name                            : E:\downloads\Ragnarok.2013.Blu.Ray.1080p.CINEMANIA.mkv
Format                                   : Matroska
Format version                           : Version 4 / Version 2
File size                                : 9.01 GiB
Duration                                 : 1h 41mn
Overall bit rate                         : 12.8 Mbps
Movie name                               : Release Group CINEMANIA
Encoded date                             : UTC 2014-02-26 18:05:16
Writing application                      : mkvmerge v6.7.0 ('Back to the Ground') 64bit built on Jan  8 2014 15:10:52
Writing library                          : libebml v1.3.0 + libmatroska v1.4.1
Video
ID                                       : 1
Format                                   : AVC
Format/Info                              : Advanced Video Codec
Format profile                           : High@L4.1
Format settings, CABAC                   : Yes
Format settings, ReFrames                : 5 frames
Codec ID                                 : V_MPEG4/ISO/AVC
Duration                                 : 1h 41mn
Bit rate                                 : 9 481 Kbps
Width                                    : 1 920 pixels
Height                                   : 800 pixels
Display aspect ratio                     : 2.40:1
Frame rate mode                          : Constant
Frame rate                               : 24.000 fps
Color space                              : YUV
Chroma subsampling                       : 4:2:0
Bit depth                                : 8 bits
Scan type                                : Progressive
Bits/(Pixel*Frame)                       : 0.257
Stream size                              : 6.70 GiB (74%)
Title                                    : Release Group CINEMANIA
Language                                 : English
Default                                  : Yes
Forced                                   : No
Audio #1
ID                                       : 2
Format                                   : DTS
Format/Info                              : Digital Theater Systems
Mode                                     : 16
Format settings, Endianness              : Big
Codec ID                                 : A_DTS
Duration                                 : 1h 41mn
Bit rate mode                            : Constant
Bit rate                                 : 1 510 Kbps
Channel count                            : 6 channels
Channel positions                        : Front: L C R, Side: L R, LFE
Sampling rate                            : 48.0 KHz
Bit depth                                : 24 bits
Compression mode                         : Lossy
Stream size                              : 1.07 GiB (12%)
Title                                    : Влад и Снежина
Language                                 : Russian
Default                                  : Yes
Forced                                   : Yes
Audio #2
ID                                       : 3
Format                                   : DTS
Format/Info                              : Digital Theater Systems
Mode                                     : 16
Format settings, Endianness              : Big
Codec ID                                 : A_DTS
Duration                                 : 1h 41mn
Bit rate mode                            : Constant
Bit rate                                 : 1 509 Kbps
Channel count                            : 6 channels
Channel positions                        : Front: L C R, Side: L R, LFE
Sampling rate                            : 48.0 KHz
Bit depth                                : 24 bits
Compression mode                         : Lossy
Stream size                              : 1.07 GiB (12%)
Language                                 : Norwegian
Default                                  : No
Forced                                   : No
Text #1
ID                                       : 4
Format                                   : UTF-8
Codec ID                                 : S_TEXT/UTF8
Codec ID/Info                            : UTF-8 Plain Text
Title                                    : Mannenr
Language                                 : Russian
Default                                  : No
Forced                                   : No
Text #2
ID                                       : 5
Format                                   : UTF-8
Codec ID                                 : S_TEXT/UTF8
Codec ID/Info                            : UTF-8 Plain Text
Language                                 : English
Default                                  : No
Forced                                   : No
Menu
00:00:00.000                             : en:00:00:00.000
00:07:07.667                             : en:00:07:07.667
00:16:23.167                             : en:00:16:23.167
00:24:55.000                             : en:00:24:55.000
00:33:32.542                             : en:00:33:32.542
00:40:07.417                             : en:00:40:07.417
00:52:19.250                             : en:00:52:19.250
00:58:54.667                             : en:00:58:54.667
01:07:07.000                             : en:01:07:07.000
01:15:54.292                             : en:01:15:54.292
01:26:06.375                             : en:01:26:06.375
01:36:25.458                             : en:01:36:25.458

Скриншоты



_________________
Не стоит обращать внимания на отсутствие сидов на моих раздачах. Все мои релизы мультитрекерные - нет сидов, включите DHT.
За релизами в HD качестве обращайтесь в личку, либо отписывайтесь в теме.
[Торрент-статистика]
[Профиль]  [ЛС] 
Показать сообщения:    
Ответить на тему

Текущее время: Сегодня 04:57

Часовой пояс: GMT + 4



Вы не можете начинать темы
Вы не можете отвечать на сообщения
Вы не можете редактировать свои сообщения
Вы не можете удалять свои сообщения
Вы не можете голосовать в опросах
Вы не можете прикреплять файлы к сообщениям
Вы не можете скачивать файлы