Из пекла / Out of the Furnace (Скотт Купер / Scott Cooper) [2013 г., триллер, драма, криминал, BDRip 1080p] 2xDVO + Original (ENG) + Sub (ENG)

Ответить на тему
 
Автор
Сообщение

TiZAr ®

Пол:

Стаж: 7 лет 7 месяцев

Сообщений: 815

Репутация: 1160 [+] [-]

Откуда: Россия

Пост 01-Мар-2014 03:42

[Цитировать] 

Из пекла / Out of the Furnace
«Sometimes your battles choose you»
- Год выпуска: 2013
Страна: США, Великобритания
Жанр: триллер, драма, криминал
Продолжительность: 01:56:07
Перевод #1: Любительский (двухголосый закадровый) - [Дмитрий Чепусов и Анастасия Флигина / Jimmy J.]
Перевод #2: Любительский (двухголосый закадровый) - [Студия "Paradox"]
Cубтитры: английские (SDH)
Оригинальная аудиодорожка: английская
Навигация по главам: Есть
Режиссер: Скотт Купер / Scott Cooper
Производство: Appian Way, Energy Entertainment, Red Granite Pictures, Relativity Media, Scott Free Productions- -В ролях:
Кристиан Бэйл, Вуди Харрельсон, Кейси Аффлек, Форест Уитакер, Уиллем Дефо, Зои Салдана, Сэм Шепард, Дендри Тейлор, Карл Киарфалио, Нэнси Моссер и др.
Описание:
Действие фильма разворачивается в 2008 году в штате Индиана. В центре сюжета — история осужденного за убийство человека, который, выйдя из тюрьмы на свободу после четырех лет, проведенных за решеткой, пытается адаптироваться к новой жизни и, наконец-то, исполнить давно данное им обещание жениться на любимой девушке. Однако, в конце концов, он все-таки решает отложить эти радужные планы и сначала отомстить за убийство своего младшего брата.
Премьера (мир): 9 ноября 2013
Премьера (РФ): 6 февраля 2014, «Наше Кино»
  • Качество: BDRip 1080p | Сэмпл
  • Формат: MKV
  • Видео: AVC, 1920x800 (2.40:1), 23.976 fps, 8 281 Kbps (0.225 bit/pixel)
  • Аудио #1: AC-3, 48.0 KHz, 6 ch, 448 Kbps, CBR (Russian) / [Дмитрий Чепусов и Анастасия Флигина / Jimmy J.]
  • Аудио #2: AC-3, 48.0 KHz, 2 ch, 224 Kbps, CBR (Russian) / [Студия "Paradox"]
  • Аудио #3: DTS, 48.0 KHz, 6 ch, 1 510 Kbps, CBR (English) / Original (ENG)

MI

Код:
General
Unique ID                                : 204330882241306310478942110322486936609 (0x99B8B24BABF8517B91B8177C43880421)
Complete name                            : E:\downloads\Out of the Furnace 2013 BDRip 1080p GORESEWAGE.mkv
Format                                   : Matroska
Format version                           : Version 4 / Version 2
File size                                : 8.48 GiB
Duration                                 : 1h 56mn
Overall bit rate                         : 10.5 Mbps
Movie name                               : Out of the Furnace 2013 BDRip 1080p GORESEWAGE
Encoded date                             : UTC 2014-02-27 09:11:50
Writing application                      : mkvmerge v6.1.0 ('Old Devil') built on Mar  2 2013 14:32:37
Writing library                          : libebml v1.3.0 + libmatroska v1.4.0
Attachment                               : Yes
Video
ID                                       : 1
Format                                   : AVC
Format/Info                              : Advanced Video Codec
Format profile                           : High@L4.1
Format settings, CABAC                   : Yes
Format settings, ReFrames                : 5 frames
Codec ID                                 : V_MPEG4/ISO/AVC
Duration                                 : 1h 56mn
Bit rate                                 : 8 281 Kbps
Width                                    : 1 920 pixels
Height                                   : 800 pixels
Display aspect ratio                     : 2.40:1
Frame rate mode                          : Constant
Frame rate                               : 23.976 fps
Color space                              : YUV
Chroma subsampling                       : 4:2:0
Bit depth                                : 8 bits
Scan type                                : Progressive
Bits/(Pixel*Frame)                       : 0.225
Stream size                              : 6.54 GiB (77%)
Title                                    : Out of the Furnace 2013 BDRip 1080p GORESEWAGE
Writing library                          : x264 core 140 r2377 1ca7bb9
Encoding settings                        : cabac=1 / ref=5 / deblock=1:0:0 / analyse=0x3:0x133 / me=umh / subme=7 / psy=1 / psy_rd=1.00:0.00 / mixed_ref=1 / me_range=16 / chroma_me=1 / trellis=1 / 8x8dct=1 / cqm=0 / deadzone=21,11 / fast_pskip=0 / chroma_qp_offset=-2 / threads=12 / lookahead_threads=2 / sliced_threads=0 / nr=0 / decimate=1 / interlaced=0 / bluray_compat=0 / constrained_intra=0 / bframes=3 / b_pyramid=2 / b_adapt=1 / b_bias=0 / direct=1 / weightb=1 / open_gop=0 / weightp=2 / keyint=250 / keyint_min=23 / scenecut=40 / intra_refresh=0 / rc_lookahead=40 / rc=2pass / mbtree=1 / bitrate=8281 / ratetol=1.0 / qcomp=0.60 / qpmin=0 / qpmax=69 / qpstep=4 / cplxblur=20.0 / qblur=0.5 / ip_ratio=1.40 / aq=1:1.00
Language                                 : English
Default                                  : Yes
Forced                                   : No
Audio #1
ID                                       : 2
Format                                   : AC-3
Format/Info                              : Audio Coding 3
Mode extension                           : CM (complete main)
Format settings, Endianness              : Big
Codec ID                                 : A_AC3
Duration                                 : 1h 56mn
Bit rate mode                            : Constant
Bit rate                                 : 448 Kbps
Channel count                            : 6 channels
Channel positions                        : Front: L C R, Side: L R, LFE
Sampling rate                            : 48.0 KHz
Bit depth                                : 16 bits
Compression mode                         : Lossy
Stream size                              : 372 MiB (4%)
Title                                    : DVO Дмитрий Чепусов & Анастасия Флигина (Jimmy J.)
Language                                 : Russian
Default                                  : Yes
Forced                                   : No
Audio #2
ID                                       : 3
Format                                   : AC-3
Format/Info                              : Audio Coding 3
Mode extension                           : CM (complete main)
Format settings, Endianness              : Big
Codec ID                                 : A_AC3
Duration                                 : 1h 56mn
Bit rate mode                            : Constant
Bit rate                                 : 224 Kbps
Channel count                            : 2 channels
Channel positions                        : Front: L R
Sampling rate                            : 48.0 KHz
Bit depth                                : 16 bits
Compression mode                         : Lossy
Stream size                              : 186 MiB (2%)
Title                                    : DVO Студия "Paradox"
Language                                 : Russian
Default                                  : No
Forced                                   : No
Audio #3
ID                                       : 4
Format                                   : DTS
Format/Info                              : Digital Theater Systems
Mode                                     : 16
Format settings, Endianness              : Big
Codec ID                                 : A_DTS
Duration                                 : 1h 56mn
Bit rate mode                            : Constant
Bit rate                                 : 1 509 Kbps
Channel count                            : 6 channels
Channel positions                        : Front: L C R, Side: L R, LFE
Sampling rate                            : 48.0 KHz
Bit depth                                : 24 bits
Compression mode                         : Lossy
Stream size                              : 1.22 GiB (14%)
Title                                    : Original
Language                                 : English
Default                                  : No
Forced                                   : No
Text
ID                                       : 5
Format                                   : UTF-8
Codec ID                                 : S_TEXT/UTF8
Codec ID/Info                            : UTF-8 Plain Text
Title                                    : SDH
Language                                 : English
Default                                  : No
Forced                                   : No
Menu
00:00:00.000                             : en:00:00:00.000
00:04:54.669                             : en:00:04:54.669
00:09:02.709                             : en:00:09:02.709
00:12:11.105                             : en:00:12:11.105
00:15:39.856                             : en:00:15:39.856
00:17:55.074                             : en:00:17:55.074
00:21:13.397                             : en:00:21:13.397
00:23:40.961                             : en:00:23:40.961
00:28:09.646                             : en:00:28:09.646
00:33:17.162                             : en:00:33:17.162
00:39:15.353                             : en:00:39:15.353
00:45:26.223                             : en:00:45:26.223
00:53:10.020                             : en:00:53:10.020
01:01:09.666                             : en:01:01:09.666
01:05:31.886                             : en:01:05:31.886
01:10:08.579                             : en:01:10:08.579
01:12:25.383                             : en:01:12:25.383
01:21:45.192                             : en:01:21:45.192
01:27:18.024                             : en:01:27:18.024
01:30:31.593                             : en:01:30:31.593
01:34:18.736                             : en:01:34:18.736
01:37:58.039                             : en:01:37:58.039
01:42:51.916                             : en:01:42:51.916
01:47:49.296                             : en:01:47:49.296

Скриншоты


Дополнительная информация

* За дорогу №1 thx Дмитрий Чепусов & Анастасия Флигина (Jimmy J.).
* За дорогу №2 thx Студия "Paradox".
Внимание! Дороги №1 & 2 содержат ненормативную лексику!

_________________
Не стоит обращать внимания на отсутствие сидов на моих раздачах. Все мои релизы мультитрекерные - нет сидов, включите DHT.
За релизами в HD качестве обращайтесь в личку, либо отписывайтесь в теме.
[Торрент-статистика]
[Профиль]  [ЛС] 
Показать сообщения:    
Ответить на тему

Текущее время: Сегодня 05:57

Часовой пояс: GMT + 4



Вы не можете начинать темы
Вы не можете отвечать на сообщения
Вы не можете редактировать свои сообщения
Вы не можете удалять свои сообщения
Вы не можете голосовать в опросах
Вы не можете прикреплять файлы к сообщениям
Вы не можете скачивать файлы