Пуля / Bullet (Ник Лион / Nick Lyon) [2013 г., боевик, криминал, BDRip 1080p] VO [qwerty] + Original (Eng) + Sub (ENG)

Ответить на тему
 
Автор
Сообщение

TiZAr ®

Пол:

Стаж: 7 лет 7 месяцев

Сообщений: 815

Репутация: 1160 [+] [-]

Откуда: Россия

Пост 28-Фев-2014 00:26

[Цитировать] 

Пуля / Bullet
«This time they messed with the wrong guy!»
- Год выпуска: 2013
Страна: США / Giant Ape Media, SC Films International
Жанр: боевик, криминал
Продолжительность: 01:27:16
Перевод: Любительский (одноголосый) [qwerty]
Субтитры: английские
Оригинальная аудиодорожка: английская
Навигация по главам: Есть
Режиссер: Ник Лион / Nick Lyon- -В ролях:
Дэнни Трехо, Торстен Фогс, Джонатан Бэнкс, Кайл Вильяловос, Ив Мауро, Шери ДеЯнг, Эрик Блоссом, Джералд Уэбб, Тинсел Кори, Эрик Этебари и др.
Описание:
Пуля — это прозвище бескомпромиссного и жестокого полицейского, для которого борьба с преступностью является смыслом его жизни. В один ужасный день мафия похищает его внука, сама того не понимая какие неприятности на себя навлекая. Пуля берет закон в свои руки и начинает вершить правосудие без суда и следствия.
Релиз группы:

Качество: BDRip 1080p | Сэмпл
Формат: MKV
Видео: AVC, 1920x820 (2.35:1), 23.976 fps, 9 817 Kbps (0.260 bit/pixel)
Аудио #1: AC-3, 44.1 KHz, 2 ch, 256 Kbps, CBR (Russian)
Аудио #2: DTS, 48.0 KHz, 6 ch, 1 510 Kbps, CBR (English)

MI

Код:
General
Unique ID                                : 251309796682705059599463130954961135028 (0xBD10819B3B80D0449AC782E8C1CE25B4)
Complete name                            : E:\downloads\Bullet.2014.Blu.Ray.1080p.CINEMANIA.mkv
Format                                   : Matroska
Format version                           : Version 4 / Version 2
File size                                : 7.20 GiB
Duration                                 : 1h 27mn
Overall bit rate                         : 11.8 Mbps
Movie name                               : Release Group CINEMANIA
Encoded date                             : UTC 2014-02-24 12:07:10
Writing application                      : mkvmerge v6.7.0 ('Back to the Ground') 64bit built on Jan  8 2014 15:10:52
Writing library                          : libebml v1.3.0 + libmatroska v1.4.1
Video
ID                                       : 1
Format                                   : AVC
Format/Info                              : Advanced Video Codec
Format profile                           : High@L4.1
Format settings, CABAC                   : Yes
Format settings, ReFrames                : 5 frames
Codec ID                                 : V_MPEG4/ISO/AVC
Duration                                 : 1h 27mn
Bit rate                                 : 9 817 Kbps
Width                                    : 1 920 pixels
Height                                   : 820 pixels
Display aspect ratio                     : 2.35:1
Frame rate mode                          : Constant
Frame rate                               : 23.976 fps
Color space                              : YUV
Chroma subsampling                       : 4:2:0
Bit depth                                : 8 bits
Scan type                                : Progressive
Bits/(Pixel*Frame)                       : 0.260
Stream size                              : 5.98 GiB (83%)
Title                                    : Release Group CINEMANIA
Writing library                          : x264 core 140 r2377+40 929f149 tMod [8-bit@all X86]
Encoding settings                        : cabac=1 / ref=5 / deblock=1:-3:-3 / analyse=0x3:0x133 / me=umh / subme=11 / psy=1 / fade_compensate=0.00 / psy_rd=1.00:0.00 / mixed_ref=1 / me_range=48 / chroma_me=1 / trellis=2 / 8x8dct=1 / cqm=0 / deadzone=21,11 / fast_pskip=0 / chroma_qp_offset=-2 / threads=24 / lookahead_threads=4 / sliced_threads=0 / nr=0 / decimate=0 / interlaced=0 / bluray_compat=0 / constrained_intra=0 / fgo=0 / bframes=8 / b_pyramid=2 / b_adapt=2 / b_bias=0 / direct=3 / weightb=1 / open_gop=0 / weightp=2 / keyint=250 / keyint_min=23 / scenecut=40 / intra_refresh=0 / rc_lookahead=80 / rc=crf / mbtree=0 / crf=17.9000 / qcomp=0.72 / qpmin=0:0:0 / qpmax=69:69:69 / qpstep=4 / vbv_maxrate=50000 / vbv_bufsize=62500 / crf_max=0.0 / nal_hrd=none / filler=0 / ip_ratio=1.40 / pb_ratio=1.10 / aq=1:0.95 / aq-sensitivity=10.00 / aq-factor=1.00:1.00:1.00 / aq2=0 / aq3=0
Language                                 : English
Default                                  : Yes
Forced                                   : No
Audio #1
ID                                       : 2
Format                                   : AC-3
Format/Info                              : Audio Coding 3
Mode extension                           : CM (complete main)
Format settings, Endianness              : Big
Codec ID                                 : A_AC3
Duration                                 : 1h 27mn
Bit rate mode                            : Constant
Bit rate                                 : 256 Kbps
Channel count                            : 2 channels
Channel positions                        : Front: L R
Sampling rate                            : 44.1 KHz
Bit depth                                : 16 bits
Compression mode                         : Lossy
Stream size                              : 160 MiB (2%)
Title                                    : qwerty
Language                                 : Russian
Default                                  : Yes
Forced                                   : Yes
Audio #2
ID                                       : 3
Format                                   : DTS
Format/Info                              : Digital Theater Systems
Mode                                     : 16
Format settings, Endianness              : Big
Codec ID                                 : A_DTS
Duration                                 : 1h 27mn
Bit rate mode                            : Constant
Bit rate                                 : 1 510 Kbps
Channel count                            : 6 channels
Channel positions                        : Front: L C R, Side: L R, LFE
Sampling rate                            : 48.0 KHz
Bit depth                                : 24 bits
Compression mode                         : Lossy
Stream size                              : 942 MiB (13%)
Language                                 : English
Default                                  : No
Forced                                   : No
Text
ID                                       : 4
Format                                   : UTF-8
Codec ID                                 : S_TEXT/UTF8
Codec ID/Info                            : UTF-8 Plain Text
Language                                 : English
Default                                  : No
Forced                                   : No
Menu
00:00:00.000                             : en:00:00:00.000
00:06:15.625                             : en:00:06:15.625
00:11:31.524                             : en:00:11:31.524
00:14:13.603                             : en:00:14:13.603
00:17:44.647                             : en:00:17:44.647
00:22:35.521                             : en:00:22:35.521
00:27:37.656                             : en:00:27:37.656
00:32:33.118                             : en:00:32:33.118
00:38:37.148                             : en:00:38:37.148
00:45:01.657                             : en:00:45:01.657
00:50:12.092                             : en:00:50:12.092
00:53:54.523                             : en:00:53:54.523
00:58:18.453                             : en:00:58:18.453
01:02:21.738                             : en:01:02:21.738
01:06:54.135                             : en:01:06:54.135
01:11:02.258                             : en:01:11:02.258
01:15:43.664                             : en:01:15:43.664
01:21:14.036                             : en:01:21:14.036

Скриншоты



_________________
Не стоит обращать внимания на отсутствие сидов на моих раздачах. Все мои релизы мультитрекерные - нет сидов, включите DHT.
За релизами в HD качестве обращайтесь в личку, либо отписывайтесь в теме.
[Торрент-статистика]
[Профиль]  [ЛС] 
Показать сообщения:    
Ответить на тему

Текущее время: Сегодня 11:38

Часовой пояс: GMT + 4



Вы не можете начинать темы
Вы не можете отвечать на сообщения
Вы не можете редактировать свои сообщения
Вы не можете удалять свои сообщения
Вы не можете голосовать в опросах
Вы не можете прикреплять файлы к сообщениям
Вы не можете скачивать файлы