Аттила / Attila (Эммануэль Итье / Emmanuel Itier) [2013 г., ужасы, боевик, триллер, BDRip 1080p] VO [den904] + Original (ENG) + Sub (ENG)

Ответить на тему
 
Автор
Сообщение

TiZAr ®

Пол:

Стаж: 7 лет 7 месяцев

Сообщений: 815

Репутация: 1160 [+] [-]

Откуда: Россия

Пост 27-Фев-2014 17:05

[Цитировать] 

Аттила / Attila- Год выпуска: 2013
Страна: США / Global Asylum
Жанр: ужасы, боевик, триллер
Продолжительность: 01:25:37
Перевод: Любительский (одноголосый) [den904]
Перевод на русский язык: [kon2011]
Субтитры: английские
Оригинальная аудиодорожка: английская
Навигация по главам: Есть
Режиссер: Эммануэль Итье / Emmanuel Itier- -В ролях:
Чейк Конго, Крис Конрад, Микайла С. Кэмпбелл, М., Стивен Фелти, Филлип Андре Ботельо, Ксин Сарит Вуку, Пончо Ходжес, Стив Хэнкс, Andria Kozica, Krisle-Roy и др.
Описание:
Давным-давно вождь гуннов Аттила покинул этот мир. Спустя 1500 лет люди потревожили дух великого завоевателя. Пробудившийся после полторы тысячи лет сна Аттила вновь стал сеять хаос и разрушения. Воскресшему древнему воину пытается противостоять элитный военный отряд…
Релиз группы:

Качество: BDRip 1080p | Сэмпл
Формат: MKV
Видео: AVC, 1920x1080 (16:9), 23.976 fps, 8 660 Kbps (0.174 bit/pixel)
Аудио #1: AC-3, 48.0 KHz, 2 ch, 192 Kbps, CBR (Russian)
Аудио #2: DTS, 48.0 KHz, 6 ch, 1 510 Kbps, CBR (English)
Аудио #3: DTS, 48.0 KHz, 6 ch, 1 510 Kbps, CBR (German)

MI

Код:
General
Unique ID                                : 243099485714557165479458586954113183817 (0xB6E34205C0B56594845E8DD600C77049)
Complete name                            : E:\downloads\Attila.2013.Blu.Ray.1080p.CINEMANIA.mkv
Format                                   : Matroska
Format version                           : Version 4 / Version 2
File size                                : 7.25 GiB
Duration                                 : 1h 25mn
Overall bit rate                         : 12.1 Mbps
Movie name                               : Release Group CINEMANIA
Encoded date                             : UTC 2014-02-26 08:42:05
Writing application                      : mkvmerge v6.7.0 ('Back to the Ground') 64bit built on Jan  8 2014 15:10:52
Writing library                          : libebml v1.3.0 + libmatroska v1.4.1
Video
ID                                       : 1
Format                                   : AVC
Format/Info                              : Advanced Video Codec
Format profile                           : High@L4.1
Format settings, CABAC                   : Yes
Format settings, ReFrames                : 4 frames
Codec ID                                 : V_MPEG4/ISO/AVC
Duration                                 : 1h 25mn
Bit rate                                 : 8 662 Kbps
Width                                    : 1 920 pixels
Height                                   : 1 080 pixels
Display aspect ratio                     : 16:9
Frame rate mode                          : Constant
Frame rate                               : 23.976 fps
Color space                              : YUV
Chroma subsampling                       : 4:2:0
Bit depth                                : 8 bits
Scan type                                : Progressive
Bits/(Pixel*Frame)                       : 0.174
Stream size                              : 5.18 GiB (72%)
Title                                    : Release Group CINEMANIA
Writing library                          : x264 core 142 r2389 956c8d8
Encoding settings                        : cabac=1 / ref=4 / deblock=1:-3:-3 / analyse=0x3:0x133 / me=umh / subme=8 / psy=1 / psy_rd=1.00:0.15 / mixed_ref=1 / me_range=16 / chroma_me=1 / trellis=1 / 8x8dct=1 / cqm=0 / deadzone=21,11 / fast_pskip=0 / chroma_qp_offset=-3 / threads=6 / lookahead_threads=1 / sliced_threads=0 / nr=0 / decimate=1 / interlaced=0 / bluray_compat=0 / constrained_intra=0 / bframes=3 / b_pyramid=2 / b_adapt=2 / b_bias=0 / direct=3 / weightb=1 / open_gop=0 / weightp=2 / keyint=240 / keyint_min=23 / scenecut=40 / intra_refresh=0 / rc_lookahead=50 / rc=crf / mbtree=1 / crf=20.0 / qcomp=0.60 / qpmin=0 / qpmax=69 / qpstep=4 / ip_ratio=1.40 / aq=1:1.00
Default                                  : Yes
Forced                                   : No
Audio #1
ID                                       : 2
Format                                   : AC-3
Format/Info                              : Audio Coding 3
Mode extension                           : CM (complete main)
Format settings, Endianness              : Big
Codec ID                                 : A_AC3
Duration                                 : 1h 25mn
Bit rate mode                            : Constant
Bit rate                                 : 192 Kbps
Channel count                            : 2 channels
Channel positions                        : Front: L R
Sampling rate                            : 48.0 KHz
Bit depth                                : 16 bits
Compression mode                         : Lossy
Stream size                              : 118 MiB (2%)
Title                                    : den904
Language                                 : Russian
Default                                  : Yes
Forced                                   : Yes
Audio #2
ID                                       : 3
Format                                   : DTS
Format/Info                              : Digital Theater Systems
Mode                                     : 16
Format settings, Endianness              : Big
Codec ID                                 : A_DTS
Duration                                 : 1h 25mn
Bit rate mode                            : Constant
Bit rate                                 : 1 509 Kbps
Channel count                            : 6 channels
Channel positions                        : Front: L C R, Side: L R, LFE
Sampling rate                            : 48.0 KHz
Bit depth                                : 24 bits
Compression mode                         : Lossy
Stream size                              : 924 MiB (12%)
Language                                 : English
Default                                  : No
Forced                                   : No
Audio #3
ID                                       : 4
Format                                   : DTS
Format/Info                              : Digital Theater Systems
Mode                                     : 16
Format settings, Endianness              : Big
Codec ID                                 : A_DTS
Duration                                 : 1h 25mn
Bit rate mode                            : Constant
Bit rate                                 : 1 509 Kbps
Channel count                            : 6 channels
Channel positions                        : Front: L C R, Side: L R, LFE
Sampling rate                            : 48.0 KHz
Bit depth                                : 24 bits
Compression mode                         : Lossy
Stream size                              : 924 MiB (12%)
Language                                 : German
Default                                  : No
Forced                                   : No
Text
ID                                       : 5
Format                                   : UTF-8
Codec ID                                 : S_TEXT/UTF8
Codec ID/Info                            : UTF-8 Plain Text
Language                                 : English
Default                                  : No
Forced                                   : No
Menu
00:00:00.000                             : de:00:00:00.000
00:09:59.974                             : de:00:09:59.974
00:19:59.990                             : de:00:19:59.990
00:29:59.965                             : de:00:29:59.965
00:39:59.981                             : de:00:39:59.981
00:49:59.997                             : de:00:49:59.997
00:59:59.971                             : de:00:59:59.971
01:09:59.987                             : de:01:09:59.987
01:19:59.962                             : de:01:19:59.962

Скриншоты



_________________
Не стоит обращать внимания на отсутствие сидов на моих раздачах. Все мои релизы мультитрекерные - нет сидов, включите DHT.
За релизами в HD качестве обращайтесь в личку, либо отписывайтесь в теме.
[Торрент-статистика]
[Профиль]  [ЛС] 
Показать сообщения:    
Ответить на тему

Текущее время: Сегодня 06:27

Часовой пояс: GMT + 4



Вы не можете начинать темы
Вы не можете отвечать на сообщения
Вы не можете редактировать свои сообщения
Вы не можете удалять свои сообщения
Вы не можете голосовать в опросах
Вы не можете прикреплять файлы к сообщениям
Вы не можете скачивать файлы