Малолетка / Jailbait (Джаред Кон / Jared Cohn) [2013 г., триллер, драма, криминал, WEB-DL 720p] AVO [Xixidok] + Original + Subs (ENG)

Ответить на тему
 
Автор
Сообщение

TiZAr ®

Пол:

Стаж: 7 лет 7 месяцев

Сообщений: 815

Репутация: 1160 [+] [-]

Откуда: Россия

Пост 24-Фев-2014 01:25

[Цитировать] 

Малолетка / Jailbait- Год выпуска: 2013
Страна: США / Broken Films, Global Asylum
Жанр: триллер, драма, криминал
Продолжительность: 01:29:35
Перевод: Любительское (одноголосое) [Xixidok]
Субтитры: английские
Оригинальная аудиодорожка: английская
Навигация по главам: Есть
Режиссер: Джаред Кон / Jared Cohn- -В ролях:
Саманта Кардона, Сара Малакул Лэйн, Эрин О’Брайэн, Баррет Перлман, Николь Александра Шипли, Дженнифер Джейкобс, Тэмми Клейн, Ребекка Роули, Диана Дейнджер, Стив Хэнкс и др.
Описание:
После непредумышленного убийства отчима, который пытался изнасиловать несовершеннолетнюю Анну, она попадает в колонию для несовершеннолетних, на 4 года. Там, пытаясь отстоять свою независимость, она подвергается террору со стороны других заключенных и начальника тюрьмы.
Качество: WEB-DL 720p
Формат: MKV
Видео: AVC, 1280x720 (16:9), 23.976 fps, 3 879 Kbps (0.176 bit/pixel)
Аудио #1: AC-3, 48.0 KHz, 6 ch, 384 Kbps, CBR (Russian)
Аудио #2: AC-3, 48.0 KHz, 6 ch, 384 Kbps, CBR (English)

MI

Код:
General
Unique ID                                : 251792927515972699739036742010278641846 (0xBD6D8DCBA7EE651186439C30BF8A00B6)
Complete name                            : E:\downloads\Jailbait.2013.WEB-DL.720p.mkv
Format                                   : Matroska
Format version                           : Version 4 / Version 2
File size                                : 2.97 GiB
Duration                                 : 1h 29mn
Overall bit rate                         : 4 741 Kbps
Encoded date                             : UTC 2014-02-22 06:52:46
Writing application                      : mkvmerge v6.7.0 ('Back to the Ground') 32bit built on Jan  8 2014 15:03:17
Writing library                          : libebml v1.3.0 + libmatroska v1.4.1
Video
ID                                       : 1
Format                                   : AVC
Format/Info                              : Advanced Video Codec
Format profile                           : High@L3.1
Format settings, CABAC                   : No
Format settings, ReFrames                : 2 frames
Codec ID                                 : V_MPEG4/ISO/AVC
Duration                                 : 1h 29mn
Bit rate                                 : 3 879 Kbps
Width                                    : 1 280 pixels
Height                                   : 720 pixels
Display aspect ratio                     : 16:9
Frame rate mode                          : Constant
Frame rate                               : 23.976 fps
Color space                              : YUV
Chroma subsampling                       : 4:2:0
Bit depth                                : 8 bits
Scan type                                : Progressive
Bits/(Pixel*Frame)                       : 0.176
Stream size                              : 2.43 GiB (82%)
Language                                 : English
Default                                  : Yes
Forced                                   : No
Color primaries                          : BT.709
Transfer characteristics                 : BT.709
Matrix coefficients                      : BT.709
Audio #1
ID                                       : 2
Format                                   : AC-3
Format/Info                              : Audio Coding 3
Mode extension                           : CM (complete main)
Format settings, Endianness              : Big
Codec ID                                 : A_AC3
Duration                                 : 1h 29mn
Bit rate mode                            : Constant
Bit rate                                 : 384 Kbps
Channel count                            : 6 channels
Channel positions                        : Front: L C R, Side: L R, LFE
Sampling rate                            : 48.0 KHz
Bit depth                                : 16 bits
Compression mode                         : Lossy
Stream size                              : 246 MiB (8%)
Language                                 : Russian
Default                                  : Yes
Forced                                   : No
Audio #2
ID                                       : 3
Format                                   : AC-3
Format/Info                              : Audio Coding 3
Mode extension                           : CM (complete main)
Format settings, Endianness              : Big
Codec ID                                 : A_AC3
Duration                                 : 1h 29mn
Bit rate mode                            : Constant
Bit rate                                 : 384 Kbps
Channel count                            : 6 channels
Channel positions                        : Front: L C R, Side: L R, LFE
Sampling rate                            : 48.0 KHz
Bit depth                                : 16 bits
Compression mode                         : Lossy
Stream size                              : 246 MiB (8%)
Language                                 : English
Default                                  : No
Forced                                   : No
Text
ID                                       : 4
Format                                   : UTF-8
Codec ID                                 : S_TEXT/UTF8
Codec ID/Info                            : UTF-8 Plain Text
Language                                 : English
Default                                  : No
Forced                                   : No
Menu
00:00:00.000                             : en:Betrayed
00:07:59.000                             : en:New Friends
00:14:34.000                             : en:Help Me To Help You
00:22:42.000                             : en:Picking The Fights
00:31:30.000                             : en:Abandon
00:38:15.000                             : en:Bliss
00:45:36.000                             : en:Breaking The System
00:53:26.000                             : en:The Ward
01:00:07.000                             : en:Revenge
01:07:47.000                             : en:The Warden
01:12:45.000                             : en:Aftermath
01:19:49.000                             : en:Freedom
01:25:48.000                             : en:Credits

Скриншоты


_________________
Не стоит обращать внимания на отсутствие сидов на моих раздачах. Все мои релизы мультитрекерные - нет сидов, включите DHT.
За релизами в HD качестве обращайтесь в личку, либо отписывайтесь в теме.
[Торрент-статистика]
[Профиль]  [ЛС] 
Показать сообщения:    
Ответить на тему

Текущее время: Сегодня 11:13

Часовой пояс: GMT + 4



Вы не можете начинать темы
Вы не можете отвечать на сообщения
Вы не можете редактировать свои сообщения
Вы не можете удалять свои сообщения
Вы не можете голосовать в опросах
Вы не можете прикреплять файлы к сообщениям
Вы не можете скачивать файлы