Starперцы / Last Vegas (Джон Тёртелтауб / Jon Turteltaub) [2013 г., комедия, драма, BDRip 720p] [iTunes] + Original (ENG) + Subs (ENG)

Ответить на тему
 
Автор
Сообщение

TiZAr ®

Пол:

Стаж: 7 лет 7 месяцев

Сообщений: 815

Репутация: 1160 [+] [-]

Откуда: Россия

Пост 23-Фев-2014 18:05

[Цитировать] 

Starперцы / Last Vegas
«Мы - легенда»
- Год выпуска: 2013
Страна: США / CBS Films, Gidden Media, Good Universe, Outlaw Sinema
Жанр: комедия, драма
Продолжительность: 01:36:10
Перевод: Профессиональный (полное дублирование) [iTunes]
Субтитры: английские
Оригинальная аудиодорожка: английская
Навигация по главам: Есть
Режиссер: Джон Тёртелтауб / Jon Turteltaub- -В ролях:
Майкл Дуглас, Роберт Де Ниро, Морган Фриман, Кевин Клайн, Мэри Стинберген, Джерри Феррара, Романи Малко, Роджер Барт, Джоанна Глисон, Майкл Или и др.
Описание:
Билли, Пэдди, Арчи и Сэм дружат больше полувека. И когда убежденный холостяк Билли наконец-то делает предложение своей юной подружке, великолепная четверка отправляется в Лас-Вегас, чтобы скинуть с себя груз прожитого и зажечь как в последний раз. Великовозрастные гуляки и не подозревают, как за десятилетия эволюционировал Город Грехов…
Качество: BDRip 720p
Формат: MKV
Видео: AVC, 1280x534 (2.35:1), 23.976 fps, 6 800 Kbps (0.415 bit/pixel)
Аудио #1: AC-3, 48.0 KHz, 6 ch, 384 Kbps, CBR (Russian)
Аудио #2: DTS, 48.0 KHz, 6 ch, 1 510 Kbps, CBR (English)

Знаете ли Вы, что...

· Фильм поставлялся в кинотеатры под названием «Парни» (Fellas).
· Первоначально фильм получил рейтинг «R» за «сексуальное содержание», но позже был изменен на «PG-13». По словам режиссера Джона Тёртелтауба, изначальный рейтинг «R» был присвоен фильму лишь из-за того, что в нем один раз было произнесено слово «минет».

MI

Код:
General
Unique ID                                : 219690088631345923494518538240762597297 (0xA546C5A2F911A98BB4A0CD66D9F44FB1)
Complete name                            : E:\downloads\Last.Vegas.2013.BDRip.720p.mkv
Format                                   : Matroska
Format version                           : Version 2
File size                                : 6.39 GiB
Duration                                 : 1h 45mn
Overall bit rate                         : 8 627 Kbps
Movie name                               : CMEGRoup
Encoded date                             : UTC 2014-02-20 07:29:34
Writing application                      : mkvmerge v6.7.0 ('Back to the Ground') 64bit built on Jan  8 2014 15:10:52
Writing library                          : libebml v1.3.0 + libmatroska v1.4.1
Video
ID                                       : 1
Format                                   : AVC
Format/Info                              : Advanced Video Codec
Format profile                           : High@L4.1
Format settings, CABAC                   : Yes
Format settings, ReFrames                : 12 frames
Codec ID                                 : V_MPEG4/ISO/AVC
Duration                                 : 1h 45mn
Bit rate                                 : 6 800 Kbps
Width                                    : 1 280 pixels
Height                                   : 534 pixels
Display aspect ratio                     : 2.40:1
Frame rate mode                          : Constant
Frame rate                               : 23.976 fps
Color space                              : YUV
Chroma subsampling                       : 4:2:0
Bit depth                                : 8 bits
Scan type                                : Progressive
Bits/(Pixel*Frame)                       : 0.415
Stream size                              : 4.86 GiB (76%)
Title                                    : CMEGRoup
Writing library                          : x264 core 140 r2377+40 929f149 tMod [8-bit@4:2:0 X86_64]
Encoding settings                        : cabac=1 / ref=12 / deblock=1:-3:-3 / analyse=0x3:0x113 / me=umh / subme=10 / psy=1 / fade_compensate=0.00 / psy_rd=1.10:0.00 / mixed_ref=1 / me_range=32 / chroma_me=1 / trellis=2 / 8x8dct=1 / cqm=0 / deadzone=21,11 / fast_pskip=0 / chroma_qp_offset=-2 / threads=18 / lookahead_threads=3 / sliced_threads=0 / nr=0 / decimate=0 / interlaced=0 / bluray_compat=0 / constrained_intra=0 / fgo=0 / bframes=8 / b_pyramid=2 / b_adapt=2 / b_bias=0 / direct=3 / weightb=1 / open_gop=0 / weightp=2 / keyint=240 / keyint_min=24 / scenecut=40 / intra_refresh=0 / rc=2pass / mbtree=0 / bitrate=6800 / ratetol=1.0 / qcomp=0.70 / qpmin=0:0:0 / qpmax=69:69:69 / qpstep=4 / cplxblur=20.0 / qblur=0.5 / ip_ratio=1.10 / pb_ratio=1.10 / aq=4:0.80 / aq-sensitivity=10.00 / aq-factor=1.00:1.00:1.00 / aq2=0 / aq3=0
Language                                 : English
Default                                  : Yes
Forced                                   : No
Audio #1
ID                                       : 2
Format                                   : AC-3
Format/Info                              : Audio Coding 3
Mode extension                           : CM (complete main)
Format settings, Endianness              : Big
Codec ID                                 : A_AC3
Duration                                 : 1h 45mn
Bit rate mode                            : Constant
Bit rate                                 : 384 Kbps
Channel count                            : 6 channels
Channel positions                        : Front: L C R, Side: L R, LFE
Sampling rate                            : 48.0 KHz
Bit depth                                : 16 bits
Compression mode                         : Lossy
Stream size                              : 291 MiB (4%)
Language                                 : Russian
Default                                  : Yes
Forced                                   : No
Audio #2
ID                                       : 3
Format                                   : DTS
Format/Info                              : Digital Theater Systems
Mode                                     : 16
Format settings, Endianness              : Big
Codec ID                                 : A_DTS
Duration                                 : 1h 45mn
Bit rate mode                            : Constant
Bit rate                                 : 1 509 Kbps
Channel count                            : 6 channels
Channel positions                        : Front: L C R, Side: L R, LFE
Sampling rate                            : 48.0 KHz
Bit depth                                : 24 bits
Compression mode                         : Lossy
Stream size                              : 1.12 GiB (17%)
Title                                    : English DTS 5.1 1509Kbps
Language                                 : English
Default                                  : No
Forced                                   : No
Text #1
ID                                       : 4
Format                                   : UTF-8
Codec ID                                 : S_TEXT/UTF8
Codec ID/Info                            : UTF-8 Plain Text
Title                                    : Full
Language                                 : English
Default                                  : No
Forced                                   : No
Text #2
ID                                       : 5
Format                                   : UTF-8
Codec ID                                 : S_TEXT/UTF8
Codec ID/Info                            : UTF-8 Plain Text
Title                                    : SDH
Language                                 : English
Default                                  : No
Forced                                   : No
Text #3
ID                                       : 6
Format                                   : UTF-8
Codec ID                                 : S_TEXT/UTF8
Codec ID/Info                            : UTF-8 Plain Text
Title                                    : SDH-Colored
Language                                 : English
Default                                  : No
Forced                                   : No
Text #4
ID                                       : 7
Format                                   : UTF-8
Codec ID                                 : S_TEXT/UTF8
Codec ID/Info                            : UTF-8 Plain Text
Title                                    : Comments
Language                                 : English
Default                                  : No
Forced                                   : No
Menu
00:00:00.000                             : en:(01)00:00:00:000
00:03:03.391                             : en:(02)00:03:03:391
00:10:25.458                             : en:(03)00:10:25:458
00:20:38.862                             : en:(04)00:20:38:862
00:29:31.102                             : en:(05)00:29:31:102
00:41:30.154                             : en:(06)00:41:30:154
00:49:40.060                             : en:(07)00:49:40:060
00:57:18.977                             : en:(08)00:57:18:977
01:05:28.633                             : en:(09)01:05:28:633
01:10:08.078                             : en:(10)01:10:08:078
01:14:33.302                             : en:(11)01:14:33:302
01:18:06.682                             : en:(12)01:18:06:682
01:21:23.378                             : en:(13)01:21:23:378
01:27:03.134                             : en:(14)01:27:03:134
01:34:43.386                             : en:(15)01:34:43:386
01:40:51.045                             : en:(16)01:40:51:045

Скриншоты

-Трейлер Youtube

_________________
Не стоит обращать внимания на отсутствие сидов на моих раздачах. Все мои релизы мультитрекерные - нет сидов, включите DHT.
За релизами в HD качестве обращайтесь в личку, либо отписывайтесь в теме.
[Торрент-статистика]
[Профиль]  [ЛС] 
Показать сообщения:    
Ответить на тему

Текущее время: Сегодня 00:31

Часовой пояс: GMT + 4



Вы не можете начинать темы
Вы не можете отвечать на сообщения
Вы не можете редактировать свои сообщения
Вы не можете удалять свои сообщения
Вы не можете голосовать в опросах
Вы не можете прикреплять файлы к сообщениям
Вы не можете скачивать файлы