Забойный реванш / Grudge Match (Питер Сигал / Peter Segal) [2013 г., комедия, спорт, WEBRip 720p *PROPER*] Dub [Line] + AVO (Пучков aka Гоблин) + AVO (В. Котов - Чистый звук) + Original (ENG)

Ответить на тему
 
Автор
Сообщение

TiZAr ®

Пол:

Стаж: 7 лет 7 месяцев

Сообщений: 815

Репутация: 1160 [+] [-]

Откуда: Россия

Пост 23-Фев-2014 03:40

[Цитировать] 

Забойный реванш / Grudge Match
«Когда возраст не имеет значения»
- Год выпуска: 2013
Страна: США / Callahan Filmworks, Gerber Pictures, Warner Bros. Pictures
Жанр: комедия, спорт
Продолжительность: 01:52:59
Перевод #1: Профессиональный (дублированный) [Line]
Перевод #2: Авторский (Пучков aka Гоблин) [звук с TS]
Перевод #3: Авторский (В. Котов) [чистый звук]
Субтитры: Китайские (hardsub - неотключаемые)
Оригинальная аудиодорожка: английская
Режиссер: Питер Сигал / Peter Segal- -В ролях:
Роберт Де Ниро, Сильвестр Сталлоне, Кевин Харт, Алан Аркин, Джон Бернтал, Ким Бейсингер, Кемден Грэй, Пол Бен-Виктор, ЭлЭл Кул Джей, Энтони Андерсон и др.
Описание:
Фильм расскажет о двух бывших боксерах, решающих вернуться на ринг ради финального матча, который должен будет уладить все их разногласия.
О релизе: Новый лучший источник от немцев.
Сравнение с прошлой вэбкой http://screenshotcomparison.com/comparison/56842
Чистка звука Гоблина - Slim9174, синхронизация всех звуковых дорог - danis92, сборка дороги Котова - mihaildns
Качество: WEBRip 720p *PROPER* | Сэмпл
Формат: MKV
Видео: AVC, 1280x716 (16:9), 24.000 fps, 6 177 Kbps (0.281 bit/pixel)
Аудио #1: AC-3, 48.0 KHz, 2 ch, 192 Kbps, CBR (Russian) - (DUB)
Аудио #2: AC-3, 48.0 KHz, 2 ch, 192 Kbps, CBR (Russian) - (AVO Goblin)
Аудио #3: AC-3, 48.0 KHz, 2 ch, 192 Kbps, CBR (Russian) - (AVO Kotov)
Аудио #4: AC-3, 48.0 KHz, 2 ch, 192 Kbps, CBR (English)

MI

Код:
General
Unique ID                                : 236810569712031069918831500848345756411 (0xB2280E86391552ABA00A0C64F8CDB2FB)
Complete name                            : E:\downloads\Zaboinyi.revansh.2013.WEBRip.720p.PROPER (1).mkv
Format                                   : Matroska
Format version                           : Version 4 / Version 2
File size                                : 5.59 GiB
Duration                                 : 1h 52mn
Overall bit rate                         : 7 086 Kbps
Movie name                               : This is NSAne!!!
Encoded date                             : UTC 2014-02-20 09:40:50
Writing application                      : mkvmerge v6.6.0 ('The Edge Of The In Between') built on Dec  1 2013 17:55:00
Writing library                          : libebml v1.3.0 + libmatroska v1.4.1
Video
ID                                       : 1
Format                                   : AVC
Format/Info                              : Advanced Video Codec
Format profile                           : High@L4.1
Format settings, CABAC                   : Yes
Format settings, ReFrames                : 8 frames
Codec ID                                 : V_MPEG4/ISO/AVC
Duration                                 : 1h 52mn
Bit rate                                 : 6 177 Kbps
Width                                    : 1 280 pixels
Height                                   : 716 pixels
Display aspect ratio                     : 16:9
Frame rate mode                          : Constant
Frame rate                               : 24.000 fps
Color space                              : YUV
Chroma subsampling                       : 4:2:0
Bit depth                                : 8 bits
Scan type                                : Progressive
Bits/(Pixel*Frame)                       : 0.281
Stream size                              : 4.87 GiB (87%)
Title                                    : 720p encoded by NSAne
Writing library                          : x264 core 125 r2360 9956758
Encoding settings                        : cabac=1 / ref=8 / deblock=1:1:1 / analyse=0x3:0x113 / me=umh / subme=9 / psy=1 / psy_rd=1.30:0.00 / mixed_ref=1 / me_range=64 / chroma_me=1 / trellis=2 / 8x8dct=1 / cqm=0 / deadzone=21,11 / fast_pskip=0 / chroma_qp_offset=-2 / threads=6 / lookahead_threads=1 / sliced_threads=0 / nr=0 / decimate=1 / interlaced=0 / bluray_compat=0 / constrained_intra=0 / bframes=5 / b_pyramid=2 / b_adapt=1 / b_bias=0 / direct=3 / weightb=1 / open_gop=0 / weightp=2 / keyint=250 / keyint_min=24 / scenecut=40 / intra_refresh=0 / rc=crf / mbtree=0 / crf=20.5 / qcomp=0.60 / qpmin=15 / qpmax=69 / qpstep=4 / ip_ratio=1.40 / pb_ratio=1.30 / aq=1:1.00
Language                                 : English
Default                                  : Yes
Forced                                   : Yes
Audio #1
ID                                       : 2
Format                                   : AC-3
Format/Info                              : Audio Coding 3
Mode extension                           : CM (complete main)
Format settings, Endianness              : Big
Codec ID                                 : A_AC3
Duration                                 : 1h 52mn
Bit rate mode                            : Constant
Bit rate                                 : 192 Kbps
Channel count                            : 2 channels
Channel positions                        : Front: L R
Sampling rate                            : 48.0 KHz
Bit depth                                : 16 bits
Compression mode                         : Lossy
Stream size                              : 155 MiB (3%)
Title                                    : DUB
Language                                 : Russian
Default                                  : Yes
Forced                                   : No
Audio #2
ID                                       : 3
Format                                   : AC-3
Format/Info                              : Audio Coding 3
Mode extension                           : CM (complete main)
Format settings, Endianness              : Big
Codec ID                                 : A_AC3
Duration                                 : 1h 52mn
Bit rate mode                            : Constant
Bit rate                                 : 192 Kbps
Channel count                            : 2 channels
Channel positions                        : Front: L R
Sampling rate                            : 48.0 KHz
Bit depth                                : 16 bits
Compression mode                         : Lossy
Stream size                              : 155 MiB (3%)
Title                                    : AVO Goblin
Language                                 : Russian
Default                                  : No
Forced                                   : No
Audio #3
ID                                       : 4
Format                                   : AC-3
Format/Info                              : Audio Coding 3
Mode extension                           : CM (complete main)
Format settings, Endianness              : Big
Codec ID                                 : A_AC3
Duration                                 : 1h 52mn
Bit rate mode                            : Constant
Bit rate                                 : 192 Kbps
Channel count                            : 2 channels
Channel positions                        : Front: L R
Sampling rate                            : 48.0 KHz
Bit depth                                : 16 bits
Compression mode                         : Lossy
Stream size                              : 155 MiB (3%)
Title                                    : AVO Kotov
Language                                 : Russian
Default                                  : No
Forced                                   : No
Audio #4
ID                                       : 5
Format                                   : AC-3
Format/Info                              : Audio Coding 3
Mode extension                           : CM (complete main)
Format settings, Endianness              : Big
Codec ID                                 : A_AC3
Duration                                 : 1h 52mn
Bit rate mode                            : Constant
Bit rate                                 : 192 Kbps
Channel count                            : 2 channels
Channel positions                        : Front: L R
Sampling rate                            : 48.0 KHz
Bit depth                                : 16 bits
Compression mode                         : Lossy
Stream size                              : 155 MiB (3%)
Title                                    : Original
Language                                 : English
Default                                  : No
Forced                                   : No

Скриншоты


_________________
Не стоит обращать внимания на отсутствие сидов на моих раздачах. Все мои релизы мультитрекерные - нет сидов, включите DHT.
За релизами в HD качестве обращайтесь в личку, либо отписывайтесь в теме.
[Торрент-статистика]
[Профиль]  [ЛС] 
Показать сообщения:    
Ответить на тему

Текущее время: Сегодня 02:08

Часовой пояс: GMT + 4



Вы не можете начинать темы
Вы не можете отвечать на сообщения
Вы не можете редактировать свои сообщения
Вы не можете удалять свои сообщения
Вы не можете голосовать в опросах
Вы не можете прикреплять файлы к сообщениям
Вы не можете скачивать файлы