Миротворец / The Peacemaker (Мими Ледер / Mimi Leder) [1997, США, Боевик, триллер, BDRip 720p], DVO + original + sub (Rus, Eng)

Ответить на тему
 
Автор
Сообщение

awk05 ®

Пол:

Стаж: 8 лет 9 месяцев

Сообщений: 1334

Репутация: 278 [+] [-]

Откуда: Западная Украина Ривне

Пост 19-Фев-2014 05:37

[Цитировать] 

--Миротворец / The Peacemaker-- Год выпуска: 1997
Страна: США, «DreamWorks SKG»
Жанр: Боевик / триллер
Продолжительность: 02:03:50
Перевод: Профессиональный (двухголосый закадровый) (R5)
Cубтитры: Русские / английские--
Режиссер: Мими Ледер / Mimi Leder--В ролях: Джордж Клуни (Lt. Col. Thomas Devoe), Николь Кидман (Dr. Julia Kelly), Марчел Юреш (Dusan Gavrich), Александр Балуев (General Aleksandr Kodoroff), Рене Медвесек (Vlado Mirich), Гари Вернтц (Terry Hamilton), Рэндолл Батинкофф (Ken), Джим Хейни (General Garnett), Александр Штробеле (Dietrich Schuhmacher), Холт МакКэллани (Mark Appleton), Майкл Ботмэн (CPN Beach), Джоан Коуплэнд (Senator Helen Bevens), Карлос Гомес (Santiago), Армин Мюллер-Шталь (Dimitri Vertikoff), Славко Юрага (Stevo).--Описание: Русский поезд, который везет ядерные ракеты с целью их уничтожения, частично поврежден взрывом где-то в отдалённом районе на юге России. Соответствующие сигналы поступают в ядерный центр американского Белого Дома, где этим происшествием начинает заниматься специалист по ядерной физике и полковник спецслужбы армии США. Они выясняют, что опасное оружие было похищено русским генералом с целью продажи международным террористам, и в последний момент предотвращают большую катастрофу.--Качество видео: BDRip 720p
Формат видео: MKV
Видео кодек: AVC (High@L4.1)
Аудио кодек: AC3 / DTS
Видео: 1280x544 (2.35:1), 23,976 кадра/сек, 6073 Кбит/сек, 0.364 Бит/(Пиксели*Кадры)
Аудио 1: 6 каналов Front: L C R, Side: L R, LFE, 48,0 КГц, 448 Кбит/сек, 16 бит [RUS]
Аудио 2: 6 каналов Front: L C R, Side: L R, LFE, 48,0 КГц, 1509 Кбит/сек, 24 бит [ENG]--

MediaInfo

Общее
Уникальный идентификатор : 197875150685778788103445634569829504494 (0x94DD5E27DA0526F28E5C8484EA0E55EE)
Полное имя : G:\Films-new\Mirotvorec.1997.BDRip.720p.x264.mkv
Формат : Matroska
Версия формата : Version 2
Размер файла : 6,95 Гбайт
Продолжительность : 2 ч. 3 м.
Общий поток : 8029 Кбит/сек
Название фильма : Миротворец / The Peacemaker (1997) BDRip 720p / muxing by «ppy»
Дата кодирования : UTC 2010-09-25 17:18:31
Программа кодирования : mkvmerge v4.0.0 ('The Stars were mine') сборка от Jun 5 2010 17:44:09
Библиотека кодирования : libebml v1.0.0 + libmatroska v1.0.0
Видео
Идентификатор : 1
Формат : AVC
Формат/Информация : Advanced Video Codec
Профиль формата : High@L4.1
Параметр CABAC формата : Да
Параметр ReFrames формата : 12 кадров
Идентификатор кодека : V_MPEG4/ISO/AVC
Продолжительность : 2 ч. 3 м.
Битрейт : 6073 Кбит/сек
Ширина : 1280 пикселей
Высота : 544 пикселя
Соотношение сторон : 2,35:1
Режим частоты кадров : Постоянный
Частота кадров : 23,976 кадра/сек
Цветовое пространство : YUV
Субдискретизация насыщенности : 4:2:0
Битовая глубина : 8 бит
Тип развёртки : Прогрессивная
Бит/(Пиксели*Кадры) : 0.364
Размер потока : 5,11 Гбайт (74%)
Заголовок : AVC x264; 1280x544; 23.976 fps; 6073 kbps
Библиотека кодирования : x264 core 104 r1713 c276662
Настройки программы : cabac=1 / ref=12 / deblock=1:-3:-3 / analyse=0x3:0x113 / me=umh / subme=10 / psy=1 / psy_rd=1.05:0.10 / mixed_ref=1 / me_range=32 / chroma_me=1 / trellis=2 / 8x8dct=1 / cqm=0 / deadzone=21,11 / fast_pskip=0 / chroma_qp_offset=-5 / threads=12 / sliced_threads=0 / nr=0 / decimate=0 / interlaced=0 / constrained_intra=0 / bframes=4 / b_pyramid=2 / b_adapt=2 / b_bias=0 / direct=3 / weightb=1 / open_gop=0 / weightp=2 / keyint=250 / keyint_min=23 / scenecut=40 / intra_refresh=0 / rc_lookahead=50 / rc=2pass / mbtree=1 / bitrate=6073 / ratetol=1.0 / qcomp=0.60 / qpmin=10 / qpmax=51 / qpstep=4 / cplxblur=20.0 / qblur=0.5 / vbv_maxrate=40000 / vbv_bufsize=40000 / ip_ratio=1.40 / aq=2:0.80 / nal_hrd=none
Язык : English
Default : Да
Forced : Да
Аудио #1
Идентификатор : 2
Формат : AC-3
Формат/Информация : Audio Coding 3
Расширение режима : CM (complete main)
Параметр Endianness формата : Big
Идентификатор кодека : A_AC3
Продолжительность : 2 ч. 3 м.
Вид битрейта : Постоянный
Битрейт : 448 Кбит/сек
Каналы : 6 каналов
Расположение каналов : Front: L C R, Side: L R, LFE
Частота : 48,0 КГц
Битовая глубина : 16 бит
Метод сжатия : С потерями
Размер потока : 397 Мбайт (6%)
Заголовок : DVO - AC3; 48000 Hz; 6 ch; 448 kbps
Язык : Russian
Default : Да
Forced : Да
Аудио #2
Идентификатор : 3
Формат : DTS
Формат/Информация : Digital Theater Systems
Режим : 16
Параметр Endianness формата : Big
Идентификатор кодека : A_DTS
Продолжительность : 2 ч. 3 м.
Вид битрейта : Постоянный
Битрейт : 1509 Кбит/сек
Каналы : 6 каналов
Расположение каналов : Front: L C R, Side: L R, LFE
Частота : 48,0 КГц
Битовая глубина : 24 бит
Метод сжатия : С потерями
Размер потока : 1,31 Гбайт (19%)
Заголовок : EN_Original - DTS; 48000 Hz; 6 ch; 1510 kbps
Язык : English
Default : Нет
Forced : Нет
Текст #1
Идентификатор : 4
Формат : UTF-8
Идентификатор кодека : S_TEXT/UTF8
Идентификатор кодека/Информация : UTF-8 Plain Text
Заголовок : RU_Subtitles
Язык : Russian
Default : Да
Forced : Нет
Текст #2
Идентификатор : 5
Формат : UTF-8
Идентификатор кодека : S_TEXT/UTF8
Идентификатор кодека/Информация : UTF-8 Plain Text
Заголовок : EN_Subtitles
Язык : English
Default : Нет
Forced : Нет

_________________
[Торрент-статистика]
[Профиль]  [ЛС] 
Показать сообщения:    
Ответить на тему

Текущее время: Сегодня 05:03

Часовой пояс: GMT + 4



Вы не можете начинать темы
Вы не можете отвечать на сообщения
Вы не можете редактировать свои сообщения
Вы не можете удалять свои сообщения
Вы не можете голосовать в опросах
Вы не можете прикреплять файлы к сообщениям
Вы не можете скачивать файлы