Каратель / The Punisher (Джонатан Хенсли / Jonathan Hensleigh) [2004, США, Германия, боевик, триллер, драма, криминал, BDRip 720p] Dub (Невафильм) + DVO (Tycoon) + Original + Sub(Rus,Eng)

Ответить на тему
 
Автор
Сообщение

awk05 ®

Пол:

Стаж: 8 лет 9 месяцев

Сообщений: 1334

Репутация: 278 [+] [-]

Откуда: Западная Украина Ривне

Пост 19-Фев-2014 03:42

[Цитировать] 

--Каратель / The Punisher-- Страна: США, Германия
Студия: Lions Gate Films | Marvel Enterprises | Valhalla Motion Pictures
Жанр: боевик, триллер, драма, криминал
Год выпуска: 2004
Продолжительность: 02:03:30
Перевод: Профессиональный (дублированный) / Профессиональный (двухголосый закадровый)
Оригинальная аудиодорожка: английский--Режиссер: Джонатан Хенсли / Jonathan Hensleigh--
В ролях: Томас Джейн (Frank Castle), Джон Траволта (Howard Saint), Уилл Пэттон (Quentin Glass), Рой Шайдер (Frank Castle Sr.), Лаура Хэрринг (Livia Saint), Бен Фостер (Spacker Dave), Ребекка Ромейн (Joan), А. Расселл Эндрюс (Jimmy Weeks), Омар Авила (Joe Toro), Джеймс Карпинелло (Bobby Saint / John Saint)--Описание: Бывший оперативник отряда Дельта, Фрэнк Кастл, приходит на службу в ФБР в качестве агента под прикрытием. Во время одной из операций Кастл становится виновником смерти Бобби Сэйнта — сына известного криминального босса Говарда Сэйнта. Сэйнт приказывает убить Кастла и его семью. Гангстеры Сэйнта вырезают всю семью Кастла, но самому Фрэнку чудом удается выжить. Благодаря местному отшельнику, который его выходил, Фрэнк возвращается к жизни с твердым намерением отомстить.--
Качество видео: BDRip 720p
Формат видео: MKV
Видео кодек: AVC (High@L4.1)
Аудио кодек: AC3, AAC
Видео: 1280x544 (2.35:1), 23,976 кадра/сек, 6000 Кбит/сек, 0.359 Бит/(Пиксели*Кадры)
Аудио 1: 6 каналов Front: L C R, Side: L R, LFE, 48,0 КГц, 640 Кбит/сек, 16 бит [RUS] |DUB "Невафильм"|
Аудио 2: 6 каналов Front: L C R, Side: L R, LFE, 48,0 КГц, 384 Кбит/сек, 16 бит [RUS] |DVO, Tycoon-studio|
Аудио 3: 6 каналов Front: L C R, Side: L R, LFE, 640 Кбит/сек, 16 бит [ENG]
Аудио 3: 2 канала Front: L R, 48,0 КГц, 96 Кбит/сек, 16 бит [ENG]|комментарии|
Cубтитры: Русские (надписи), Русские, Русские (Tycoon-studio), Английские, Английские (SDH)
Формат субтитров: ASS-- --

MediaInfo

Общее
Уникальный идентификатор : 205236672132344872901687279047893356635 (0x9A67252F67E9EFC1B688F7998334905B)
Полное имя : E:\Film\The.Punisher.2004.720p.BDRip.x264.ac3.eng.rus-HDv0T.mkv
Формат : Matroska
Версия формата : Version 2
Размер файла : 6,70 Гбайт
Продолжительность : 2 ч. 3 м.
Общий поток : 7761 Кбит/сек
Дата кодирования : UTC 2012-03-24 21:12:56
Программа кодирования : mkvmerge v5.4.0 ('Piper') built on Mar 10 2012 13:34:39
Библиотека кодирования : libebml v1.2.3 + libmatroska v1.3.0
Видео
Идентификатор : 1
Формат : AVC
Формат/Информация : Advanced Video Codec
Профиль формата : High@L4.1
Параметр CABAC формата : Да
Параметр ReFrames формата : 12 кадров
Идентификатор кодека : V_MPEG4/ISO/AVC
Продолжительность : 2 ч. 3 м.
Номинальный битрейт : 6000 Кбит/сек
Ширина : 1280 пикселей
Высота : 544 пикселя
Соотношение сторон : 2,35:1
Режим частоты кадров : Постоянный
Частота кадров : 23,976 кадра/сек
Цветовое пространство : YUV
Субдискретизация насыщенности : 4:2:0
Битовая глубина : 8 бит
Тип развёртки : Прогрессивная
Бит/(Пиксели*Кадры) : 0.359
Заголовок : The Punisher (2004) 720p BDRip x264-HDv0T / shef2010
Библиотека кодирования : x264 core 122 r2184 5c85e0a
Настройки программы : cabac=1 / ref=12 / deblock=1:-3:-3 / analyse=0x3:0x113 / me=umh / subme=9 / psy=1 / psy_rd=1.10:0.00 / mixed_ref=1 / me_range=24 / chroma_me=1 / trellis=2 / 8x8dct=1 / cqm=0 / deadzone=21,11 / fast_pskip=0 / chroma_qp_offset=-2 / threads=3 / sliced_threads=0 / nr=0 / decimate=0 / interlaced=0 / bluray_compat=0 / constrained_intra=0 / bframes=6 / b_pyramid=2 / b_adapt=2 / b_bias=0 / direct=3 / weightb=1 / open_gop=0 / weightp=2 / keyint=250 / keyint_min=23 / scenecut=40 / intra_refresh=0 / rc=2pass / mbtree=0 / bitrate=6000 / ratetol=1.0 / qcomp=0.60 / qpmin=0 / qpmax=69 / qpstep=4 / cplxblur=20.0 / qblur=0.5 / ip_ratio=1.40 / pb_ratio=1.30 / aq=2:0.80
Язык : English
Default : Нет
Forced : Нет
Аудио #1
Идентификатор : 2
Формат : AC-3
Формат/Информация : Audio Coding 3
Расширение режима : CM (complete main)
Параметр Endianness формата : Big
Идентификатор кодека : A_AC3
Продолжительность : 2 ч. 3 м.
Вид битрейта : Постоянный
Битрейт : 640 Кбит/сек
Каналы : 6 каналов
Расположение каналов : Front: L C R, Side: L R, LFE
Частота : 48,0 КГц
Битовая глубина : 16 бит
Метод сжатия : С потерями
Размер потока : 565 Мбайт (8%)
Заголовок : AC3-EX 5.1 @ 640 kbps [дублированный Невафильм]
Язык : Russian
Default : Да
Forced : Нет
Аудио #2
Идентификатор : 3
Формат : AC-3
Формат/Информация : Audio Coding 3
Расширение режима : CM (complete main)
Параметр Endianness формата : Big
Идентификатор кодека : A_AC3
Продолжительность : 2 ч. 3 м.
Вид битрейта : Постоянный
Битрейт : 384 Кбит/сек
Каналы : 6 каналов
Расположение каналов : Front: L C R, Side: L R, LFE
Частота : 48,0 КГц
Битовая глубина : 16 бит
Метод сжатия : С потерями
Размер потока : 339 Мбайт (5%)
Заголовок : AC3 5.1 @ 384 kbps [два голоса Tycoon-studio]
Язык : Russian
Default : Нет
Forced : Нет
Аудио #3
Идентификатор : 4
Формат : AC-3
Формат/Информация : Audio Coding 3
Расширение режима : CM (complete main)
Параметр Endianness формата : Big
Идентификатор кодека : A_AC3
Продолжительность : 2 ч. 3 м.
Вид битрейта : Постоянный
Битрейт : 640 Кбит/сек
Каналы : 6 каналов
Расположение каналов : Front: L C R, Side: L R, LFE
Частота : 48,0 КГц
Битовая глубина : 16 бит
Метод сжатия : С потерями
Размер потока : 565 Мбайт (8%)
Заголовок : AC3-EX 5.1 @ 640 kbps
Язык : English
Default : Нет
Forced : Нет
Аудио #4
Идентификатор : 5
Формат : AAC
Формат/Информация : Advanced Audio Codec
Профиль формата : LC
Идентификатор кодека : A_AAC
Продолжительность : 2 ч. 3 м.
Каналы : 2 канала
Расположение каналов : Front: L R
Частота : 48,0 КГц
Метод сжатия : С потерями
Задержка видео : 9 мс.
Заголовок : AAC 2.0 @ 96 kbps [комментарии]
Язык : English
Default : Нет
Forced : Нет
Текст #1
Идентификатор : 6
Формат : ASS
Идентификатор кодека : S_TEXT/ASS
Идентификатор кодека/Информация : Advanced Sub Station Alpha
Метод сжатия : Без потерь
Заголовок : [надписи]
Язык : Russian
Default : Нет
Forced : Нет
Текст #2
Идентификатор : 7
Формат : ASS
Идентификатор кодека : S_TEXT/ASS
Идентификатор кодека/Информация : Advanced Sub Station Alpha
Метод сжатия : Без потерь
Язык : Russian
Default : Нет
Forced : Нет
Текст #3
Идентификатор : 8
Формат : ASS
Идентификатор кодека : S_TEXT/ASS
Идентификатор кодека/Информация : Advanced Sub Station Alpha
Метод сжатия : Без потерь
Заголовок : [Tycoon-studio]
Язык : Russian
Default : Нет
Forced : Нет
Текст #4
Идентификатор : 9
Формат : ASS
Идентификатор кодека : S_TEXT/ASS
Идентификатор кодека/Информация : Advanced Sub Station Alpha
Метод сжатия : Без потерь
Язык : English
Default : Нет
Forced : Нет
Текст #5
Идентификатор : 10
Формат : ASS
Идентификатор кодека : S_TEXT/ASS
Идентификатор кодека/Информация : Advanced Sub Station Alpha
Метод сжатия : Без потерь
Заголовок : [SDH]
Язык : English
Default : Нет
Forced : Нет
Меню
00:00:00.000 : ru:Глава 1
00:07:06.926 : ru:Глава 2
00:14:57.438 : ru:Глава 3
00:22:23.926 : ru:Глава 4
00:31:55.330 : ru:Глава 5
00:38:29.557 : ru:Глава 6
00:46:16.273 : ru:Глава 7
00:54:10.873 : ru:Глава 8
01:01:19.676 : ru:Глава 9
01:08:20.305 : ru:Глава 10
01:15:16.220 : ru:Глава 11
01:22:47.379 : ru:Глава 12
01:35:01.487 : ru:Глава 13
01:40:39.367 : ru:Глава 14
01:48:43.726 : ru:Глава 15
01:55:42.936 : ru:Глава 16

Скриншоты


_________________
[Торрент-статистика]
[Профиль]  [ЛС] 
Показать сообщения:    
Ответить на тему

Текущее время: Сегодня 11:26

Часовой пояс: GMT + 4



Вы не можете начинать темы
Вы не можете отвечать на сообщения
Вы не можете редактировать свои сообщения
Вы не можете удалять свои сообщения
Вы не можете голосовать в опросах
Вы не можете прикреплять файлы к сообщениям
Вы не можете скачивать файлы