Танго и Кэш / Tango & Cash (Андрей Кончаловский / Andrei Konchalovsky, Альберт Магноли / Albert Magnoli) [1989, США, боевик, триллер, комедия, криминал, BDRip 720p] Dub MVO DVO AVO Sub Rus + Original Eng

Ответить на тему
 
Автор
Сообщение

awk05 ®

Пол:

Стаж: 8 лет 9 месяцев

Сообщений: 1334

Репутация: 278 [+] [-]

Откуда: Западная Украина Ривне

Пост 18-Фев-2014 23:23

[Цитировать] 

--Танго и Кэш / Tango & Cash«Два старых соперника, двое лучших полицейских Лос-Анджелеса. Им придётся работать вместе... даже если это их погубит»-- Страна: США
Жанр: боевик, триллер, комедия, криминал
Год выпуска: 1989
Продолжительность: 01:43:46
Перевод: Профессиональный (дублированный), Профессиональный (многоголосый закадровый), Профессиональный (двухголосый закадровый), Авторский (одноголосый закадровый)
Cубтитры: русские, английские
Оригинальная аудиодорожка: английский--
Режиссер: Андрей Кончаловский / Andrei Konchalovsky, Альберт Магноли / Albert Magnoli--
В ролях: Сильвестр Сталлоне (Lt. Raymond Tango), Курт Рассел (Lt. Gabriel Cash), Тери Хэтчер (Katherine «Kiki» Tango), Джек Пэланс (Yves Perret), Брайон Джеймс (Requin), Джеймс Хонг (Quan), [url=]Марк Алаймо[/url] (Lopez), [url=]Филип Тан[/url] (Chinese Gunman), Майкл Дж. Поллард (Owen), Роберт З’ (Face), Льюис Аркетт (Wyler), Эдвард Банкер (Capt. Holmes)--
Описание: Рэй Танго и Гэйб Кэш — двое полицейских из отдела по борьбе с наркотиками Лос-Анджелеса. Они работают в разных участках и, по натуре наделённые совершенно разными характерами, постоянно соперничают друг с другом. Они оба охотятся за крупным международным преступником Ивом Перре и в связи с этим волей-неволей становятся напарниками. Перре смертельно надоела эта парочка и он подставляет их, подбросив труп и подстроив им причастность к убийству. Танго и Кэш арестованы. Для того, чтобы остановить Перре и восстановить своё доброе имя, они вынуждены организовать побег из тюрьмы…--Качество видео:BDRip 720p
Формат видео: MKV
Видео кодек: AVC (High@L4.1)
Аудио кодек: AC3
Видео: 1280x538 (2.40:1), 23,976 кадра/сек, 5378 Кбит/сек, 0.326 Бит/(Пиксели*Кадры)
Аудио 1: 6 каналов Front: L C R, Side: L R, LFE, 48,0 КГц, 640 Кбит/сек, 16 бит [RUS] (DUB)
Аудио 2: 6 каналов Front: L C R, Side: L R, LFE, 48,0 КГц, 256 Кбит/сек, 16 бит [RUS] (MVO, НТВ)
Аудио 3: 2 канала Front: L R, 48,0 КГц, 256 Кбит/сек, 16 бит [UA] (DVO)
Аудио 4: 6 каналов Front: L C R, Side: L R, LFE, 48,0 КГц, 640 Кбит/сек, 16 бит [RUS] (AVO, Гаврилов)
Аудио 5: 6 каналов Front: L C R, Side: L R, LFE, 48,0 КГц, 384 Кбит/сек, 16 бит [RUS] (AVO, Дохалов)
Аудио 6: 6 каналов Front: L C R, Side: L R, LFE, 48,0 КГц, 384 Кбит/сек, 16 бит [RUS] (AVO, Горчаков)
Аудио 7: 2 канала Front: L R, 48,0 КГц, 640 Кбит/сек, 16 бит [ENG]

Формат субтитров: softsub (SRT)-- --

из книги «3500 кинорецензий»

Боевик (Сергей Кудрявцев 6/10)
Двое полицейских, Рэймонд Танго и Гэбриел Кэш (фамилия последнего, кстати, означает «наличные деньги»), которые соперничают друг с другом благодаря своим смелым акциям, совершаемых против торговцев наркотиками, оказываются ловко подставленными главарём мафии Ивом Перре и посажены в тюрьму, откуда оба задумали устроить совместный побег.
Андрей Кончаловский, который уже имел опыт работы над философским боевиком «Поезд беглецов», где действие начиналось в тюрьме, довольно успешно справился с жанром «полицейско-тюремного» фильма, круто и жёстко (а порой — не без юмора) режиссируя историю заядлых соперников-партнёров. Труднее всего, вероятно, далось ему «укрощение двух звёзд в одной клетке» — суперпопулярного Сильвестра Сталлоне и тоже известного Кёрта Рассела. По слухам, Кончаловский, будучи уже третьим по счёту постановщиком (а на финальной стадии его сменил Альберт Маньоли), не очень-то ладил на съёмочной площадке с «непокорным Слаем».
Тем не менее, результат оправдал все неприятности и проблемы. Вполне неплохая в зрелищном плане лента (если не предъявлять к ней слишком серьёзных претензий) собрала немалые для произведений подобного жанра деньги в прокате. И по итогам 80-х годов картина «Танго и Кэш» чуть не попала в список ста самых кассовых в США. Ни одна из четырёх предшествующих американских работ российского режиссёра не пользовалась таким коммерческим успехом.
1990

Знаете ли Вы, что...

* Барри Зонненфельд должен был стать оператором этого фильма, но был уволен по требованию Сильвестра Сталлоне. На смену ему пришел Дональд И. Торин.
* Во время съёмочного периода Андрей Кончаловский покинул проект. Альберт Магноли заканчивал съёмки фильма. Однако, в титрах в качестве режиссера указан только Андрей Кончаловский.
* Первоначальное название фильма — «Подстава» (The Set Up).
* Сцена, в которой Танго (Сильвестр Сталлоне) останавливает грузовик, очень сильно напоминает сцену из «Полицейской истории» (1985), где Джеки Чан делает то же самое.
* Полный вариант имеет хронометраж 104 минуты.
* В одном из эпизодов фильма появляется актёр Савелий Крамаров.
* Тюремные сцены снимались в Мэнсфилдской тюрьме (она же тюрьма «Шоушенк» в фильме «Побег из Шоушенка» (1994)), причем это происходило еще до её официального закрытия, то есть когда тюрьма была действующей.
* В начале фильма, когда Танго простреливает бензовоз и оттуда высыпается наркотик, один из полицейских спрашивает: «Ты себя что, Рэмбо возомнил?» на что тот отвечает: «Рэмбо — жалкий неудачник!».
* Когда Танго и Кэш бегут из тюрьмы, Кэш поворачивается к Танго и спрашивает его: «Не хочешь ли сейчас кофе и датчанку?». Танго в исполнении Сильвестра Сталлоне отвечает: «Ненавижу датчанок!», намекая на свой недавний развод с датской актрисой Бриджит Нильсен.
* Первоначально в роли Кэша должен был сниматься Патрик Суэйзи, но он покинул проект и стал сниматься в фильме «Придорожная закусочная» (1989).
* Первоначально роль Рекина в исполнении Брайона Джеймса была очень маленькой. Тогда Джеймс начал говорить с английским акцентом. Это понравилось Сталлоне, который переписал сценарий, расширив роль Джеймса.

MediaInfo

Общее
Уникальный идентификатор : 229299767835544035243228279224227283925 (0xAC818766BF58590EAB605FC6A17743D5)
Полное имя : D:\Film\Tango.&.Cash.1989.720p.BluRay.AC3.x264.5xRus.Ukr.Eng-CHD.mkv
Формат : Matroska
Версия формата : Version 2
Размер файла : 6,22 Гбайт
Продолжительность : 1 ч. 43 м.
Общий поток : 8582 Кбит/сек
Название фильма : Tango&Cash (1989) 720p BluRay ESiR - HDCLUB
Дата кодирования : UTC 2012-01-31 17:32:16
Программа кодирования : mkvmerge v4.6.0 ('Still Crazy After All These Years') сборка от Mar 10 2011 02:50:32
Библиотека кодирования : libebml v1.2.0 + libmatroska v1.1.0
Attachment : Yes / Yes / Yes
Видео
Идентификатор : 1
Формат : AVC
Формат/Информация : Advanced Video Codec
Профиль формата : High@L4.1
Параметр CABAC формата : Да
Параметр ReFrames формата : 12 кадров
Идентификатор кодека : V_MPEG4/ISO/AVC
Продолжительность : 1 ч. 43 м.
Битрейт : 5378 Кбит/сек
Ширина : 1280 пикселей
Высота : 538 пикселей
Соотношение сторон : 2,40:1
Режим частоты кадров : Постоянный
Частота кадров : 23,976 кадра/сек
Цветовое пространство : YUV
Субдискретизация насыщенности : 4:2:0
Битовая глубина : 8 бит
Тип развёртки : Прогрессивная
Бит/(Пиксели*Кадры) : 0.326
Размер потока : 3,78 Гбайт (61%)
Библиотека кодирования : x264 core 114 r1913 5fd3dce
Настройки программы : cabac=1 / ref=12 / deblock=1:-3:-3 / analyse=0x3:0x113 / me=umh / subme=9 / psy=1 / psy_rd=1.10:0.15 / mixed_ref=1 / me_range=32 / chroma_me=1 / trellis=2 / 8x8dct=1 / cqm=2 / deadzone=21,11 / fast_pskip=0 / chroma_qp_offset=-2 / threads=12 / sliced_threads=0 / nr=0 / decimate=1 / interlaced=0 / constrained_intra=0 / bframes=6 / b_pyramid=2 / b_adapt=2 / b_bias=0 / direct=3 / weightb=1 / open_gop=0 / weightp=2 / keyint=250 / keyint_min=23 / scenecut=40 / intra_refresh=0 / rc_lookahead=60 / rc=2pass / mbtree=1 / bitrate=5378 / ratetol=1.0 / qcomp=0.60 / qpmin=1 / qpmax=63 / qpstep=4 / cplxblur=20.0 / qblur=0.5 / vbv_maxrate=40000 / vbv_bufsize=30000 / nal_hrd=none / ip_ratio=1.40 / aq=1:0.80
Язык : English
Default : Да
Forced : Нет
Аудио #1
Идентификатор : 2
Формат : AC-3
Формат/Информация : Audio Coding 3
Расширение режима : CM (complete main)
Параметр Endianness формата : Big
Идентификатор кодека : A_AC3
Продолжительность : 1 ч. 43 м.
Вид битрейта : Постоянный
Битрейт : 640 Кбит/сек
Каналы : 6 каналов
Расположение каналов : Front: L C R, Side: L R, LFE
Частота : 48,0 КГц
Битовая глубина : 16 бит
Метод сжатия : С потерями
Размер потока : 475 Мбайт (7%)
Заголовок : AC3, 6 ch, ~640 kbps - Дубляж
Язык : Russian
Default : Да
Forced : Нет
Аудио #2
Идентификатор : 3
Формат : AC-3
Формат/Информация : Audio Coding 3
Расширение режима : CM (complete main)
Параметр Endianness формата : Big
Идентификатор кодека : A_AC3
Продолжительность : 1 ч. 43 м.
Вид битрейта : Постоянный
Битрейт : 256 Кбит/сек
Каналы : 6 каналов
Расположение каналов : Front: L C R, Side: L R, LFE
Частота : 48,0 КГц
Битовая глубина : 16 бит
Метод сжатия : С потерями
Размер потока : 190 Мбайт (3%)
Заголовок : AC3, 6 ch, ~256 kbps - MVO (НТВ)
Язык : Russian
Default : Нет
Forced : Нет
Аудио #3
Идентификатор : 4
Формат : AC-3
Формат/Информация : Audio Coding 3
Расширение режима : CM (complete main)
Параметр Endianness формата : Big
Идентификатор кодека : A_AC3
Продолжительность : 1 ч. 43 м.
Вид битрейта : Постоянный
Битрейт : 256 Кбит/сек
Каналы : 2 канала
Расположение каналов : Front: L R
Частота : 48,0 КГц
Битовая глубина : 16 бит
Метод сжатия : С потерями
Размер потока : 190 Мбайт (3%)
Заголовок : AC3, 2 ch, ~256 kbps - DVO
Язык : Ukrainian
Default : Нет
Forced : Нет
Аудио #4
Идентификатор : 5
Формат : AC-3
Формат/Информация : Audio Coding 3
Расширение режима : CM (complete main)
Параметр Endianness формата : Big
Идентификатор кодека : A_AC3
Продолжительность : 1 ч. 43 м.
Вид битрейта : Постоянный
Битрейт : 640 Кбит/сек
Каналы : 6 каналов
Расположение каналов : Front: L C R, Side: L R, LFE
Частота : 48,0 КГц
Битовая глубина : 16 бит
Метод сжатия : С потерями
Размер потока : 475 Мбайт (7%)
Заголовок : AC3, 6 ch, ~640 kbps - AVO (Гаврилов)
Язык : Russian
Default : Нет
Forced : Нет
Аудио #5
Идентификатор : 6
Формат : AC-3
Формат/Информация : Audio Coding 3
Расширение режима : CM (complete main)
Параметр Endianness формата : Big
Идентификатор кодека : A_AC3
Продолжительность : 1 ч. 43 м.
Вид битрейта : Постоянный
Битрейт : 384 Кбит/сек
Каналы : 6 каналов
Расположение каналов : Front: L C R, Side: L R, LFE
Частота : 48,0 КГц
Битовая глубина : 16 бит
Метод сжатия : С потерями
Размер потока : 285 Мбайт (4%)
Заголовок : AC3, 6 ch, ~384 kbps - AVO (Дохалов)
Язык : Russian
Default : Нет
Forced : Нет
Аудио #6
Идентификатор : 7
Формат : AC-3
Формат/Информация : Audio Coding 3
Расширение режима : CM (complete main)
Параметр Endianness формата : Big
Идентификатор кодека : A_AC3
Продолжительность : 1 ч. 43 м.
Вид битрейта : Постоянный
Битрейт : 384 Кбит/сек
Каналы : 6 каналов
Расположение каналов : Front: L C R, Side: L R, LFE
Частота : 48,0 КГц
Битовая глубина : 16 бит
Метод сжатия : С потерями
Размер потока : 285 Мбайт (4%)
Заголовок : AC3, 6 ch, ~384 kbps - AVO (Горчаков)
Язык : Russian
Default : Нет
Forced : Нет
Аудио #7
Идентификатор : 8
Формат : AC-3
Формат/Информация : Audio Coding 3
Расширение режима : CM (complete main)
Параметр Endianness формата : Big
Идентификатор кодека : A_AC3
Продолжительность : 1 ч. 43 м.
Вид битрейта : Постоянный
Битрейт : 640 Кбит/сек
Каналы : 6 каналов
Расположение каналов : Front: L C R, Side: L R, LFE
Частота : 48,0 КГц
Битовая глубина : 16 бит
Метод сжатия : С потерями
Размер потока : 475 Мбайт (7%)
Заголовок : AC3, 6 ch, ~640 kbps
Язык : English
Default : Нет
Forced : Нет
Текст #1
Идентификатор : 9
Формат : UTF-8
Идентификатор кодека : S_TEXT/UTF8
Идентификатор кодека/Информация : UTF-8 Plain Text
Язык : Russian
Default : Нет
Forced : Нет
Текст #2
Идентификатор : 10
Формат : UTF-8
Идентификатор кодека : S_TEXT/UTF8
Идентификатор кодека/Информация : UTF-8 Plain Text
Язык : English
Default : Нет
Forced : Нет

Скриншоты


_________________
[Торрент-статистика]
[Профиль]  [ЛС] 
Показать сообщения:    
Ответить на тему

Текущее время: Сегодня 09:49

Часовой пояс: GMT + 4



Вы не можете начинать темы
Вы не можете отвечать на сообщения
Вы не можете редактировать свои сообщения
Вы не можете удалять свои сообщения
Вы не можете голосовать в опросах
Вы не можете прикреплять файлы к сообщениям
Вы не можете скачивать файлы