Талантливый мистер Рипли / The Talented Mr. Ripley (Энтони Мингелла / Anthony Minghella) [1999, США, триллер, драма, криминал, BDRip 720p] DUB Sub rus + original eng

Ответить на тему
 
Автор
Сообщение

awk05 ®

Пол:

Стаж: 8 лет 9 месяцев

Сообщений: 1334

Репутация: 278 [+] [-]

Откуда: Западная Украина Ривне

Пост 18-Фев-2014 22:27

[Цитировать] 

--Талантливый мистер Рипли / The Talented Mr. Ripley«Кем ещё он захочет стать?»-- Страна: США
Жанр: триллер, драма, криминал
Год выпуска: 1999
Продолжительность: 02:19:06
Перевод: Профессиональный (дублированный)
Cубтитры: русские (2 вида), английские
Оригинальная аудиодорожка: английский--Режиссер: Энтони Мингелла / Anthony Minghella--В ролях: Мэтт Дэймон (Tom Ripley), Гвинет Пэлтроу (Marge Sherwood), Джуд Лоу (Dickie Greenleaf), Кейт Бланшетт (Meredith Logue), Филип Сеймур Хоффман (Freddie Miles), Джек Девенпорт (Peter Smith-Kingsley), Джеймс Ребхорн (Herbert Greenleaf), Серджо Рубини (Inspector Roverini), Филип Бейкер Холл (Alvin MacCarron), Селия Уэстон (Aunt Joan), Фиорелло (Fausto), Стефания Рокка (Silvana)--Описание: Том Рипли знал, что рано или поздно он пробьется наверх. Однажды, после случайного знакомства, один из богатейших людей Америки дает Тому поручение съездить в Италию и убедить его сына, транжирящего деньги в Европе, вернуться в Штаты...
Вскоре Том уже знакомится с Дики Гринлифом и Мардж. Их роскошная жизнь очаровывает Тома. А позже обстоятельства складываются так, что он решает занять место Дики.
--Качество видео:BDRip 720p
Формат видео: MKV
Видео кодек: AVC (High@L4.1)
Аудио кодек: AC3, DTS
Видео: 1280x720 (2.35:1), 23,976 кадра/сек, 5237 Кбит/сек, 0.237 Бит/(Пиксели*Кадры)
Аудио 1: 6 каналов Front: L C R, Side: L R, LFE, 48,0 КГц, 382 Кбит/сек, 16 бит [RUS]
Аудио 2: 6 каналов Front: L C R, Side: L R, LFE, 48,0 КГц, 1509 Кбит/сек, 24 бит [ENG]
Формат субтитров: softsub (SRT)-- --

Знаете ли Вы, что...

* Роман Патриции Хайсмит уже был экранизирован Рене Клеманом под названием «На ярком солнце». В роли Тома Рипли выступил Ален Делон.
* Полное название фильма (оно показано в начальных титрах) — «Загадочный, тоскующий, скрытный, печальный, одинокий, озадаченный, музыкальный, одаренный, умный, красивый, нежный, чувственный, преследуемый, страстный, талантливый мистер Рипли» (англ. The Mysterious Yearning Secretive Sad Lonely Troubled Confused Loving Musical Gifted Intelligent Beautiful Tender Sensitive Haunted Passionate Talented Mr. Ripley).
* Во время съёмок Джуд Лоу сломал ребро, упав с лодки в сцене собственной гибели.
* В театре герои фильма смотрят оперу «Евгений Онегин»
* Первоначально роль Тома Рипли Энтони Мингелла хотел предложить Тому Крузу. Однако посмотрев фильм «Умница Уилл Хантинг» (1997), режиссер решил пригласить Мэтта Деймона.
* Для съемок в фильме Джуд Лоу учился играть на саксофоне, а Мэтт Деймон - на фортепиано.
* Уроки Мэтта Деймона позволили ему воспроизвести в кадре необходимую фортепианную аппликатуру, однако саму звучащую в фильме фортепианную музыку записали профессиональные пианисты Салли Хет и Габриэль Яред (композитор фильма).
* Для роли Тома Рипли Мэтт Деймон сбросил 30 фунтов (примерно 13,61 кг) веса.
* Эпизоды в Нью-Йорке, с которых начинается фильм, были первоначально отсняты в Риме. Однако режиссер остался неудовлетворен результатом и позже эти эпизоды были пересняты в Нью-Йорке.
* Любимое ателье мужской одежды Дики Гринлифа в Риме, «Баттистони» - это реальное ателье мужской одежды, основанное в 1946 году и располагающееся во внутреннем дворе дома номер 61а по Виа-Кондотти.
* Бутик, в котором Рипли заказывает визитку с инициалами Дики Гринлифа, - это бутик «Гуччи» на Виа-Кондотти.
* Том Рипли убивает Фредди Майлза бюстом римского императора Адриана.
* Предсмертная записка Дики Гринлифа датирована 6 января 1959 года. Эта дата - день пятилетия режиссера Энтони Мингеллы.
* Песня, которую поет герой Деймона «My Funny Valentine» впервые прозвучала в бродвейском мьюзикле в 1937 году «Красотки в доспехах» («Babes in Arms»), была издана в более чем 1300 альбомах в исполнении более чем 600 артистов.

MediaInfo

Общее
Уникальный идентификатор : 187068996430369467219120755500159612475 (0x8CBC2D9DCE3929D5AFA519ADE51C363B)
Полное имя : D:\Film\The.Talented.Mr.Ripley.1999.BluRay.720p.x264.Rus.Eng-MySiLU.mkv
Формат : Matroska
Версия формата : Version 2
Размер файла : 6,93 Гбайт
Продолжительность : 2 ч. 19 м.
Общий поток : 7133 Кбит/сек
Название фильма : The.Talented.Mr.Ripley.1999.Blu-ray.720p.x264-EbP
Дата кодирования : UTC 2011-02-22 10:17:42
Программа кодирования : mkvmerge v3.4.0 ('Rapunzel') built on May 15 2010 09:38:20
Библиотека кодирования : libebml v0.8.0 + libmatroska v0.9.0
Видео
Идентификатор : 1
Формат : AVC
Формат/Информация : Advanced Video Codec
Профиль формата : High@L4.1
Параметр CABAC формата : Да
Параметр ReFrames формата : 8 кадров
Идентификатор кодека : V_MPEG4/ISO/AVC
Продолжительность : 2 ч. 19 м.
Битрейт : 5237 Кбит/сек
Ширина : 1280 пикселей
Высота : 720 пикселей
Соотношение сторон : 16:9
Режим частоты кадров : Постоянный
Частота кадров : 23,976 кадра/сек
Цветовое пространство : YUV
Субдискретизация насыщенности : 4:2:0
Битовая глубина : 8 бит
Тип развёртки : Прогрессивная
Бит/(Пиксели*Кадры) : 0.237
Размер потока : 4,95 Гбайт (71%)
Библиотека кодирования : x264 core 113 r1884 7313bb5
Настройки программы : cabac=1 / ref=8 / deblock=1:-2:-2 / analyse=0x3:0x133 / me=umh / subme=9 / psy=1 / psy_rd=1.10:0.15 / mixed_ref=1 / me_range=32 / chroma_me=1 / trellis=2 / 8x8dct=1 / cqm=0 / deadzone=21,11 / fast_pskip=1 / chroma_qp_offset=-3 / threads=12 / sliced_threads=0 / nr=0 / decimate=1 / interlaced=0 / constrained_intra=0 / bframes=5 / b_pyramid=2 / b_adapt=2 / b_bias=0 / direct=3 / weightb=1 / open_gop=0 / weightp=2 / keyint=250 / keyint_min=1 / scenecut=60 / intra_refresh=0 / rc_lookahead=60 / rc=2pass / mbtree=1 / bitrate=5237 / ratetol=1.0 / qcomp=0.70 / qpmin=10 / qpmax=69 / qpstep=4 / cplxblur=20.0 / qblur=0.5 / vbv_maxrate=40000 / vbv_bufsize=40000 / nal_hrd=none / ip_ratio=1.20 / aq=1:1.00
Default : Да
Forced : Нет
Аудио #1
Идентификатор : 2
Формат : AC-3
Формат/Информация : Audio Coding 3
Расширение режима : CM (complete main)
Параметр Endianness формата : Big
Идентификатор кодека : A_AC3
Продолжительность : 2 ч. 19 м.
Вид битрейта : Постоянный
Битрейт : 384 Кбит/сек
Каналы : 6 каналов
Расположение каналов : Front: L C R, Side: L R, LFE
Частота : 48,0 КГц
Битовая глубина : 16 бит
Метод сжатия : С потерями
Размер потока : 382 Мбайт (5%)
Заголовок : AC3 Dolby Digital, 6 ch, ~384.00 kbps - Дубляж
Язык : Russian
Default : Да
Forced : Нет
Аудио #2
Идентификатор : 3
Формат : DTS
Формат/Информация : Digital Theater Systems
Режим : 16
Параметр Endianness формата : Big
Идентификатор кодека : A_DTS
Продолжительность : 2 ч. 19 м.
Вид битрейта : Постоянный
Битрейт : 1509 Кбит/сек
Каналы : 6 каналов
Расположение каналов : Front: L C R, Side: L R, LFE
Частота : 48,0 КГц
Битовая глубина : 24 бит
Метод сжатия : С потерями
Задержка видео : 11 мс.
Размер потока : 1,47 Гбайт (21%)
Заголовок : DTS, 6 ch, 1510 kbps
Язык : English
Default : Нет
Forced : Нет
Текст #1
Идентификатор : 4
Формат : UTF-8
Идентификатор кодека : S_TEXT/UTF8
Идентификатор кодека/Информация : UTF-8 Plain Text
Заголовок : DK
Язык : Russian
Default : Нет
Forced : Нет
Текст #2
Идентификатор : 5
Формат : UTF-8
Идентификатор кодека : S_TEXT/UTF8
Идентификатор кодека/Информация : UTF-8 Plain Text
Язык : Russian
Default : Нет
Forced : Нет
Текст #3
Идентификатор : 6
Формат : UTF-8
Идентификатор кодека : S_TEXT/UTF8
Идентификатор кодека/Информация : UTF-8 Plain Text
Язык : English
Default : Нет
Forced : Нет

Скриншоты


_________________
[Торрент-статистика]
[Профиль]  [ЛС] 
Показать сообщения:    
Ответить на тему

Текущее время: Сегодня 10:29

Часовой пояс: GMT + 4



Вы не можете начинать темы
Вы не можете отвечать на сообщения
Вы не можете редактировать свои сообщения
Вы не можете удалять свои сообщения
Вы не можете голосовать в опросах
Вы не можете прикреплять файлы к сообщениям
Вы не можете скачивать файлы