Стильная штучка / Sweet Home Alabama (Энди Теннант / Andy Tennant) [2002 г., мелодрама, комедия, BDRip 720p] Dub + DVO + AVOx2 (Рудой, Королев)

Ответить на тему
 
Автор
Сообщение

awk05 ®

Пол:

Стаж: 4 года 5 месяцев

Сообщений: 1352

Репутация: 275 [+] [-]

Откуда: Западная Украина Ривне

Пост 18-Фев-2014 21:18

[Цитировать] 

--Стильная штучка / Sweet Home Alabama-- Год выпуска: 2002
Страна: США
Жанр: мелодрама, комедия
Продолжительность: 01:48:47
Перевод: Профессиональный (полное дублирование), Профессиональный (двухголосый, закадровый) DDV, Авторский (одноголосый, закадровый) Евгений Рудой / Владимир Королев
Субтитры: русские (x2), английские--Режиссер: Энди Теннант / Andy Tennant--В ролях: Риз Уизерспун (Melanie Smooter,), Джош Лукас (Jake Perry), Патрик Демпси (Andrew Hennings), Кэндис Берген (Mayor Kate Hennings), Мэри Кэй Плэйс (Pearl Smooter), Фред Уорд (Earl Smooter), Джин Смарт (Stella Kay Perry), Итэн Эмбри (Bobby Ray), Мелани Лински (Lurlynn), Кортни Гейнс (Sheriff Wade), Мэри Линн Райскаб (Dorothea), Рона Митра (Tabatha Wadmore-Smith)--Описание: В этой романтичной комедии нью-йоркский дизайнер мод Мелани Кармайкл внезапно оказывается очарована самым знатным холостяком города. Но прошлое Мелани хранит много тайн, включая Джейка, мужа, за которого она вышла замуж в средней школе и который отказывается разводиться с ней.
Решив закончить их спорные отношения раз и навсегда, Мелани тайком возвращается домой в штат Алабама, но там она обнаруживает, что можно забрать девушку с Юга, но никогда нельзя забрать Юг из девушки…
--Качество видео:BDRip 720p
Формат видео: MKV
Видео кодек: AVC (High@L4.1)
Аудио кодек: AC3
Видео: 1 280x544 (2.35:1), 23,976 кадра/сек, 6606 Кбит/сек, 0.396 Бит/(Пиксели*Кадры)
Аудио 1: 6 каналов Front: L C R, Side: L R, LFE, 48,0 КГц, 384 Кбит/сек, 16 бит [RUS] DUB
Аудио 2: 6 каналов Front: L C R, Side: L R, LFE, 48,0 КГц, 384 Кбит/сек, 16 бит [RUS] DDV
Аудио 3: 6 каналов Front: L C R, Side: L R, LFE, 48,0 КГц, 640 Кбит/сек, 16 бит [RUS] Рудой
Аудио 3: 6 каналов Front: L C R, Side: L R, LFE, 48,0 КГц, 640 Кбит/сек, 16 бит [RUS] Королев
Аудио 3: 6 каналов Front: L C R, Side: L R, LFE, 48,0 КГц, 640 Кбит/сек, 16 бит [ENG]-- --

MI

Код:
General
Complete name : Стильная штучка (2002. Sweet Home Alabama).mkv
Format : Matroska
File size : 7.06 GiB
Duration : 1h 49mn
Overall bit rate : 9 272 Kbps
Encoded date : UTC 2012-04-14 07:07:13
Writing application : mkvmerge v4.9.1 ('Ich will') сборка от Jul 11 2011 23:53:15
Writing library : libebml v1.2.1 + libmatroska v1.1.1
Video
ID : 1
Format : AVC
Format/Info : Advanced Video Codec
Format profile : High@L4.1
Format settings, CABAC : Yes
Format settings, ReFrames : 12 frames
Muxing mode : Container profile=Unknown@4.1
Codec ID : V_MPEG4/ISO/AVC
Duration : 1h 49mn
Bit rate : 6 606 Kbps
Width : 1 280 pixels
Height : 544 pixels
Display aspect ratio : 2.35:1
Frame rate : 23.976 fps
Color space : YUV
Chroma subsampling : 4:2:0
Bit depth : 8 bits
Scan type : Progressive
Bits/(Pixel*Frame) : 0.396
Stream size : 4.88 GiB (69%)
Title : Sweet.Home.Alabama.2002.BluRay.720p.AC3.x264-CHD
Writing library : x264 core 120 r2146 bcd41db
Encoding settings : cabac=1 / ref=12 / deblock=1:-3:-3 / analyse=0x3:0x113 / me=umh / subme=10 / psy=1 / psy_rd=1.10:0.15 / mixed_ref=1 / me_range=32 / chroma_me=1 / trellis=2 / 8x8dct=1 / cqm=0 / deadzone=21,11 / fast_pskip=0 / chroma_qp_offset=-2 / threads=12 / sliced_threads=0 / nr=0 / decimate=1 / interlaced=0 / bluray_compat=0 / constrained_intra=0 / bframes=6 / b_pyramid=2 / b_adapt=2 / b_bias=0 / direct=3 / weightb=1 / open_gop=0 / weightp=2 / keyint=250 / keyint_min=23 / scenecut=40 / intra_refresh=0 / rc_lookahead=60 / rc=2pass / mbtree=0 / bitrate=6606 / ratetol=1.0 / qcomp=0.60 / qpmin=0 / qpmax=69 / qpstep=4 / cplxblur=20.0 / qblur=0.5 / vbv_maxrate=40000 / vbv_bufsize=30000 / nal_hrd=none / ip_ratio=1.40 / pb_ratio=1.30 / aq=1:0.80
Language : English
Audio #1
ID : 2
Format : AC-3
Format/Info : Audio Coding 3
Mode extension : CM (complete main)
Codec ID : A_AC3
Duration : 1h 49mn
Bit rate mode : Constant
Bit rate : 384 Kbps
Channel(s) : 6 channels
Channel positions : Front: L C R, Side: L R, LFE
Sampling rate : 48.0 KHz
Bit depth : 16 bits
Stream size : 300 MiB (4%)
Title : дубляж
Language : Russian
Audio #2
ID : 3
Format : AC-3
Format/Info : Audio Coding 3
Mode extension : CM (complete main)
Codec ID : A_AC3
Duration : 1h 49mn
Bit rate mode : Constant
Bit rate : 384 Kbps
Channel(s) : 6 channels
Channel positions : Front: L C R, Side: L R, LFE
Sampling rate : 48.0 KHz
Bit depth : 16 bits
Stream size : 300 MiB (4%)
Title : DVO [DDV]
Language : Russian
Audio #3
ID : 4
Format : AC-3
Format/Info : Audio Coding 3
Mode extension : CM (complete main)
Codec ID : A_AC3
Duration : 1h 49mn
Bit rate mode : Constant
Bit rate : 640 Kbps
Channel(s) : 6 channels
Channel positions : Front: L C R, Side: L R, LFE
Sampling rate : 48.0 KHz
Bit depth : 16 bits
Stream size : 499 MiB (7%)
Title : AVO [Евгений Рудой]
Language : Russian
Audio #4
ID : 5
Format : AC-3
Format/Info : Audio Coding 3
Mode extension : CM (complete main)
Codec ID : A_AC3
Duration : 1h 49mn
Bit rate mode : Constant
Bit rate : 640 Kbps
Channel(s) : 6 channels
Channel positions : Front: L C R, Side: L R, LFE
Sampling rate : 48.0 KHz
Bit depth : 16 bits
Stream size : 499 MiB (7%)
Title : AVO [Владимир Королев]
Language : Russian
Audio #5
ID : 6
Format : AC-3
Format/Info : Audio Coding 3
Mode extension : CM (complete main)
Codec ID : A_AC3
Duration : 1h 49mn
Bit rate mode : Constant
Bit rate : 640 Kbps
Channel(s) : 6 channels
Channel positions : Front: L C R, Side: L R, LFE
Sampling rate : 48.0 KHz
Bit depth : 16 bits
Stream size : 499 MiB (7%)
Language : English
Text #1
ID : 7
Format : UTF-8
Codec ID : S_TEXT/UTF8
Codec ID/Info : UTF-8 Plain Text
Title : R5
Language : Russian
Text #2
ID : 8
Format : UTF-8
Codec ID : S_TEXT/UTF8
Codec ID/Info : UTF-8 Plain Text
Language : Russian
Text #3
ID : 9
Format : UTF-8
Codec ID : S_TEXT/UTF8
Codec ID/Info : UTF-8 Plain Text
Language : English
Menu
00:00:00.000 : en:Chapter 01
00:08:04.484 : en:Chapter 02
00:23:22.484 : en:Chapter 03
00:33:39.351 : en:Chapter 04
00:45:39.111 : en:Chapter 05
00:53:48.809 : en:Chapter 06
01:00:17.656 : en:Chapter 07
01:09:30.917 : en:Chapter 08
01:18:33.334 : en:Chapter 09
01:28:39.689 : en:Chapter 10
01:38:08.966 : en:Chapter 11
01:43:07.014 : en:Chapter 12

Скриншоты



_________________
[Торрент-статистика]
[Профиль]  [ЛС] 
Показать сообщения:    
Ответить на тему

Текущее время: Сегодня 12:11

Часовой пояс: GMT + 4



Вы не можете начинать темы
Вы не можете отвечать на сообщения
Вы не можете редактировать свои сообщения
Вы не можете удалять свои сообщения
Вы не можете голосовать в опросах
Вы не можете прикреплять файлы к сообщениям
Вы не можете скачивать файлы