Специалист / The Specialist (Луис Льоса /Luis Llosa) [1994, США, Перу, боевик, триллер, BDRip 1080p] DUB + MVOx2 + AVOx3 Sub (rus,eng) + original eng

Ответить на тему
 
Автор
Сообщение

awk05 ®

Пол:

Стаж: 8 лет 10 месяцев

Сообщений: 1334

Репутация: 278 [+] [-]

Откуда: Западная Украина Ривне

Пост 17-Фев-2014 22:04

[Цитировать] 

--Специалист / The Specialist-- Страна: США, Перу
Студия: Warner Bros. Pictures
Жанр: боевик, триллер
Год выпуска: 1994
Продолжительность: 01:49:57
Перевод: Профессиональный (дублированный)+ 2 MVO + 3 AVO
Cубтитры: русские,английские
Оригинальная аудиодорожка: английский--Режиссер: Луис Льоса /Luis Llosa--В ролях: Сильвестр Сталлоне (Ray Quick),Шэрон Стоун (May Munro),Джеймс Вудс (Ned Trent), Род Стайгер (Joe Leon), Эрик Робертс (Tomas Leon), Марио Эрнесто Санчез (Charlie), Серхио Доре мл. (Strongarm),Чейз Рэндольф (Stan Munro, May's Dad), Жанна Белл (Alice Munro, May's Mom),Бриттани Пейдж Боак (Young May)--Описание: Шэрон Стоун — в роли сексапильной красотки Мэй с роковым прошлым. Она поклялась отомстить гангстерам, убившим ее родителей, и уже выбрала способ, как с ними расправиться, и нашла человека, который это сделает: внешне невозмутимый бывший эксперт — подрывник ЦРУ Рэй.
Майами, курорт для сверхбогачей, превращается в охотничью территорию, где Мэй заманивает и соблазняет убийц, а Рэй мастерски взрывает их, превращая в пепел.--Тип релиза: BDRip 1080p[CHD]
Контейнер: MKV
Видео кодек: AVC (High@L4.1)
Аудио кодек: AC3, DTS
Видео: 1920 x 1080 (16:9), 23,976 кадра/сек, 9381 Кбит/сек, 0.189 Бит/(Пиксели*Кадры)
Аудио 1: 6 каналов Front: L C R, Side: L R, LFE, 48,0 КГц, 384 Кбит/сек, 16 бит [RUS] |DUB|
Аудио 2: 2 канала Front: L R, 48,0 КГц, 192 Кбит/сек, 16 бит [RUS] |MVO|
Аудио 3: 2 канала Front: L R, 48,0 КГц, 192 Кбит/сек, 16 бит [UA] |MVO|
Аудио 4: 2 канала Front: L R, 48,0 КГц, 192 Кбит/сек, 16 бит [RUS] |AVO-В. Дохалов|
Аудио 5: 6 каналов Front: L C R, Side: L R, LFE, 48,0 КГц, 1510 Кбит/сек, 24 бит [RUS] |AVO-А.Гаврилов|
Аудио 6: 6 каналов Front: L C R, Side: L R, LFE, 48,0 КГц, 1510 Кбит/сек, 24 бит [RUS] |AVO-Ю.Живов|
Аудио 7: 6 каналов Front: L C R, Side: L R, LFE, 48,0 КГц, 1509 Кбит/сек, 24 бит[ENG]-- --

MediaInfo

Общее
Уникальный идентификатор : 211289007020027307332940183045407503319 (0x9EF4C85575032711BF3C8C7A87EBF3D7)
Полное имя : D:\Film\The.Specialist.1994.BluRay.1080p.DTS.x264-CHD.mkv
Формат : Matroska
Версия формата : Version 2
Размер файла : 11,4 Гбайт
Продолжительность : 1 ч. 50 м.
Общий поток : 14,9 Мбит/сек
Название фильма : -Talian-
Дата кодирования : UTC 2011-08-23 16:31:24
Программа кодирования : mkvmerge v3.3.0 ('Language') сборка от May 14 2010 17:11:50
Библиотека кодирования : libebml v0.8.0 + libmatroska v0.9.0
Видео
Идентификатор : 1
Формат : AVC
Формат/Информация : Advanced Video Codec
Профиль формата : High@L4.1
Параметр CABAC формата : Да
Параметр ReFrames формата : 4 кадра
Идентификатор кодека : V_MPEG4/ISO/AVC
Продолжительность : 1 ч. 50 м.
Битрейт : 9381 Кбит/сек
Ширина : 1920 пикселей
Высота : 1080 пикселей
Соотношение сторон : 16:9
Режим частоты кадров : Постоянный
Частота кадров : 23,976 кадра/сек
Цветовое пространство : YUV
Субдискретизация насыщенности : 4:2:0
Битовая глубина : 8 бит
Тип развёртки : Прогрессивная
Бит/(Пиксели*Кадры) : 0.189
Размер потока : 6,98 Гбайт (61%)
Заголовок : The.Specialist.1994.BluRay.1080p.DTS.2Audio.x264-CHD
Библиотека кодирования : x264 core 116 r2057 0ba8a9c
Настройки программы : cabac=1 / ref=4 / deblock=1:-3:-3 / analyse=0x3:0x133 / me=umh / subme=11 / psy=1 / psy_rd=1.10:0.10 / mixed_ref=1 / me_range=64 / chroma_me=1 / trellis=2 / 8x8dct=1 / cqm=2 / deadzone=21,11 / fast_pskip=0 / chroma_qp_offset=-3 / threads=12 / sliced_threads=0 / nr=0 / decimate=0 / interlaced=0 / bluray_compat=0 / constrained_intra=0 / bframes=5 / b_pyramid=2 / b_adapt=1 / b_bias=0 / direct=3 / weightb=1 / open_gop=0 / weightp=2 / keyint=250 / keyint_min=23 / scenecut=40 / intra_refresh=0 / rc_lookahead=40 / rc=2pass / mbtree=1 / bitrate=9381 / ratetol=1.0 / qcomp=0.65 / qpmin=4 / qpmax=69 / qpstep=4 / cplxblur=20.0 / qblur=0.5 / vbv_maxrate=40000 / vbv_bufsize=30000 / nal_hrd=none / ip_ratio=1.40 / aq=1:1.00
Язык : English
Default : Нет
Forced : Нет
Аудио #1
Идентификатор : 2
Формат : AC-3
Формат/Информация : Audio Coding 3
Расширение режима : CM (complete main)
Параметр Endianness формата : Big
Идентификатор кодека : A_AC3
Продолжительность : 1 ч. 50 м.
Вид битрейта : Постоянный
Битрейт : 384 Кбит/сек
Каналы : 6 каналов
Расположение каналов : Front: L C R, Side: L R, LFE
Частота : 48,0 КГц
Битовая глубина : 16 бит
Метод сжатия : С потерями
Размер потока : 302 Мбайт (3%)
Заголовок : Dub
Язык : Russian
Default : Да
Forced : Нет
Аудио #2
Идентификатор : 3
Формат : AC-3
Формат/Информация : Audio Coding 3
Профиль формата : Dolby Digital
Расширение режима : CM (complete main)
Параметр Endianness формата : Big
Идентификатор кодека : A_AC3
Продолжительность : 1 ч. 50 м.
Вид битрейта : Постоянный
Битрейт : 192 Кбит/сек
Каналы : 2 канала
Расположение каналов : Front: L R
Частота : 48,0 КГц
Битовая глубина : 16 бит
Метод сжатия : С потерями
Размер потока : 151 Мбайт (1%)
Заголовок : MVO
Язык : Russian
Default : Нет
Forced : Нет
Аудио #3
Идентификатор : 4
Формат : AC-3
Формат/Информация : Audio Coding 3
Расширение режима : CM (complete main)
Параметр Endianness формата : Big
Идентификатор кодека : A_AC3
Продолжительность : 1 ч. 50 м.
Вид битрейта : Постоянный
Битрейт : 192 Кбит/сек
Каналы : 2 канала
Расположение каналов : Front: L R
Частота : 48,0 КГц
Битовая глубина : 16 бит
Метод сжатия : С потерями
Размер потока : 151 Мбайт (1%)
Заголовок : MVO
Язык : Ukrainian
Default : Нет
Forced : Нет
Аудио #4
Идентификатор : 5
Формат : AC-3
Формат/Информация : Audio Coding 3
Профиль формата : Dolby Digital
Расширение режима : CM (complete main)
Параметр Endianness формата : Big
Идентификатор кодека : A_AC3
Продолжительность : 1 ч. 50 м.
Вид битрейта : Постоянный
Битрейт : 192 Кбит/сек
Каналы : 2 канала
Расположение каналов : Front: L R
Частота : 48,0 КГц
Битовая глубина : 16 бит
Метод сжатия : С потерями
Размер потока : 151 Мбайт (1%)
Заголовок : AVO-В. Дохалов
Язык : Russian
Default : Нет
Forced : Нет
Аудио #5
Идентификатор : 6
Формат : DTS
Формат/Информация : Digital Theater Systems
Режим : 16
Параметр Endianness формата : Big
Идентификатор кодека : A_DTS
Продолжительность : 1 ч. 50 м.
Вид битрейта : Постоянный
Битрейт : 1510 Кбит/сек
Каналы : 6 каналов
Расположение каналов : Front: L C R, Side: L R, LFE
Частота : 48,0 КГц
Битовая глубина : 24 бит
Метод сжатия : С потерями
Размер потока : 1,16 Гбайт (10%)
Заголовок : AVO-А. Гаврилов
Язык : Russian
Default : Нет
Forced : Нет
Аудио #6
Идентификатор : 7
Формат : DTS
Формат/Информация : Digital Theater Systems
Режим : 16
Параметр Endianness формата : Big
Идентификатор кодека : A_DTS
Продолжительность : 1 ч. 50 м.
Вид битрейта : Постоянный
Битрейт : 1510 Кбит/сек
Каналы : 6 каналов
Расположение каналов : Front: L C R, Side: L R, LFE
Частота : 48,0 КГц
Битовая глубина : 24 бит
Метод сжатия : С потерями
Размер потока : 1,16 Гбайт (10%)
Заголовок : AVO-Ю. Живов
Язык : Russian
Default : Нет
Forced : Нет
Аудио #7
Идентификатор : 8
Формат : DTS
Формат/Информация : Digital Theater Systems
Режим : 16
Параметр Endianness формата : Big
Идентификатор кодека : A_DTS
Продолжительность : 1 ч. 50 м.
Вид битрейта : Постоянный
Битрейт : 1509 Кбит/сек
Каналы : 6 каналов
Расположение каналов : Front: L C R, Side: L R, LFE
Частота : 48,0 КГц
Битовая глубина : 24 бит
Метод сжатия : С потерями
Задержка видео : 11 мс.
Размер потока : 1,16 Гбайт (10%)
Заголовок : Original
Язык : English
Default : Нет
Forced : Нет
Текст #1
Идентификатор : 9
Формат : UTF-8
Идентификатор кодека : S_TEXT/UTF8
Идентификатор кодека/Информация : UTF-8 Plain Text
Заголовок : Sub
Язык : Russian
Default : Да
Forced : Нет
Текст #2
Идентификатор : 10
Формат : UTF-8
Идентификатор кодека : S_TEXT/UTF8
Идентификатор кодека/Информация : UTF-8 Plain Text
Заголовок : Sub
Язык : English
Default : Нет
Forced : Нет
Меню
00:00:00.000 : en未命名)
00:05:25.324 : en:(未命名)
00:09:18.140 : en:(未命名)
00:12:17.653 : en:(未命名)
00:14:28.951 : en:(未命名)
00:18:21.934 : en:(未命名)
00:20:38.403 : en:(未命名)
00:23:49.886 : en:(未命名)
00:27:48.666 : en:(未命名)
00:30:43.258 : en:(未命名)
00:34:34.113 : en:(未命名)
00:36:42.158 : en:(未命名)
00:39:42.380 : en:(未命名)
00:41:54.094 : en:(未命名)
00:45:34.606 : en:(未命名)
00:47:50.742 : en:(未命名)
00:53:27.078 : en:(未命名)
00:57:00.500 : en:(未命名)
01:00:51.105 : en:(未命名)
01:04:35.705 : en:(未命名)
01:09:03.973 : en:(未命名)
01:12:44.651 : en:(未命名)
01:17:26.016 : en:(未命名)
01:20:43.463 : en:(未命名)
01:23:15.615 : en:(未命名)
01:24:54.506 : en:(未命名)
01:29:02.962 : en:(未命名)
01:32:18.950 : en:(未命名)
01:33:49.081 : en:(未命名)
01:35:37.481 : en:(未命名)
01:39:44.311 : en:(未命名)
01:42:18.841 : en:(未命名)
01:44:30.889 : en:(未命名)
01:45:20.022 : en:(未命名)

_________________
[Торрент-статистика]
[Профиль]  [ЛС] 
Показать сообщения:    
Ответить на тему

Текущее время: Сегодня 07:57

Часовой пояс: GMT + 4



Вы не можете начинать темы
Вы не можете отвечать на сообщения
Вы не можете редактировать свои сообщения
Вы не можете удалять свои сообщения
Вы не можете голосовать в опросах
Вы не можете прикреплять файлы к сообщениям
Вы не можете скачивать файлы