Стиратель / Eraser (Чак Рассел / Chuck Russell) [1996 г., США, боевик, триллер, драма, детектив, BDRip 720p] DUB + MVO + AVO + Original + Sub

Ответить на тему
 
Автор
Сообщение

awk05 ®

Пол:

Стаж: 8 лет 10 месяцев

Сообщений: 1334

Репутация: 278 [+] [-]

Откуда: Западная Украина Ривне

Пост 17-Фев-2014 20:57

[Цитировать] 

--Стиратель / Eraser«Он сотрёт ваше прошлое, чтобы защитить будущее»-- Год выпуска 1996
Страна: США
Жанр: боевик, триллер, драма, детектив
Продолжительность: 01:54:31
Перевод: Профессиональный (полное дублирование), Профессиональный (многоголосый закадровый) - Карусель, Профессиональный одноголосый - А. Гаврилов, Профессиональный (многоголосый закадровый) - Новый Канал
Субтитры: Русские, Английские--Режиссёр: Чак Рассел / Chuck Russell--В ролях: Арнольд Шварценеггер (U.S. Marshal John «The Eraser» Kruger), Джеймс Каан (U.S. Marshal Robert DeGuerin), Ванесса Уильямс (Lee Cullen), Джеймс Коберн (WitSec Chief Beller), Роберт Пасторелли (Johnny Casteleone), Джеймс Кромуэлл (William Donohue), Дэнни Нуччи (WitSec Deputy Monroe), Энди Романо (Undersecretary of Defense Daniel Harper), Ник Чинланд (WitSec Agent Calderon), Майкл Пападжон (WitSec Agent Schiffer), Джо Витерелли (Tony Two-Toes), Марк Ролстон (J. Scar), Джон Слэттери (FBI Agent Corman), Роберт Миранда (Frediano), Рома Маффиа (Claire Isaacs)--Описание: Джон Крюгер «стирает» из прошлого и настоящего все следы людей, находящихся под охраной Программы Защиты Свидетелей. Ему надо защищать женщину — ее играет Ванесса Уильямс, — которая готова разоблачить сделку по продаже преступникам нового супероружия. Крюгер должен спасти и ее и себя, и начинается марафон не на жизнь, а на смерть, где ему предстоит прыгать с самолета вслед за парашютом, сражаться с аллигаторами, преодолевать суперсовременные системы безопасности и противостоять киллерам с новейшим оружием.--Качество видео:BDRip 720p
Формат видео: MKV
Видео кодек: AVC (High@L4.1)
Аудио кодек: AC3, DTS
Видео: 1280x532 (2.40:1), 23,976 кадра/сек, 4953 Кбит/сек, 0.303 Бит/(Пиксели*Кадры)
Аудио 1: 6 каналов Front: L C R, Side: L R, LFE, 48,0 КГц, 384 Кбит/сек, 16 бит [RUS] Дубляж
Аудио 2: 6 каналов Front: L C R, Side: L R, LFE, 48,0 КГц, 1509 Кбит/сек, 24 бит [RUS] Карусель
Аудио 3: 6 каналов Front: L C R, Side: L R, LFE, 48,0 КГц, 1509 Кбит/сек, 24 бит [RUS] А. Гаврилов
Аудио 4: 6 каналов Front: L C R, Side: L R, LFE, 48,0 КГц, 1510 Кбит/сек, 24 бит [ENG]
Аудио 5: 6 каналов Front: L C R, Side: L R, LFE, 48,0 КГц, 1509 Кбит/сек, 24 бит [ENG] Новый канал отдельным файлом-- --

MediaInfo

Общее
Уникальный идентификатор : 226687929522934633128589033506568430461 (0xAA8A81D49406A2EE91D4F5245970637D)
Полное имя : D:\Film\Eraser.BDRip.720p.3xRus.Eng.Ukr-Placid\Eraser.BDRip.720p.3xRus.Eng-Placid.mkv
Формат : Matroska
Версия формата : Version 2
Размер файла : 7,89 Гбайт
Продолжительность : 1 ч. 54 м.
Общий поток : 9866 Кбит/сек
Название фильма : Eraser -= Andrew Placid =-
Дата кодирования : UTC 2009-09-22 20:22:06
Программа кодирования : mkvmerge v2.9.7 ('Tenderness') built on Jul 1 2009 18:43:35
Библиотека кодирования : libebml v0.7.7 + libmatroska v0.8.1
Видео
Идентификатор : 1
Формат : AVC
Формат/Информация : Advanced Video Codec
Профиль формата : High@L4.1
Параметр CABAC формата : Да
Параметр ReFrames формата : 8 кадров
Идентификатор кодека : V_MPEG4/ISO/AVC
Продолжительность : 1 ч. 54 м.
Битрейт : 4953 Кбит/сек
Ширина : 1280 пикселей
Высота : 532 пикселя
Соотношение сторон : 2,40:1
Режим частоты кадров : Постоянный
Частота кадров : 23,976 кадра/сек
Цветовое пространство : YUV
Субдискретизация насыщенности : 4:2:0
Битовая глубина : 8 бит
Тип развёртки : Прогрессивная
Бит/(Пиксели*Кадры) : 0.303
Размер потока : 3,81 Гбайт (48%)
Заголовок : Eraser -= Andrew Placid =-
Библиотека кодирования : x264 core 68 r1183M f21daff
Настройки программы : cabac=1 / ref=8 / deblock=1:-3:-3 / analyse=0x3:0x113 / me=umh / subme=9 / psy_rd=0.9:0.0 / mixed_ref=1 / me_range=24 / chroma_me=1 / trellis=2 / 8x8dct=1 / cqm=0 / deadzone=21,11 / chroma_qp_offset=-2 / threads=3 / nr=0 / decimate=0 / mbaff=0 / bframes=3 / b_pyramid=1 / b_adapt=2 / b_bias=0 / direct=3 / wpredb=1 / keyint=250 / keyint_min=25 / scenecut=40 / rc=2pass / bitrate=4953 / ratetol=1.0 / qcomp=0.60 / qpmin=10 / qpmax=51 / qpstep=4 / cplxblur=20.0 / qblur=0.5 / ip_ratio=1.40 / pb_ratio=1.30 / aq=1:0.90
Язык : English
Default : Да
Forced : Нет
Аудио #1
Идентификатор : 2
Формат : AC-3
Формат/Информация : Audio Coding 3
Расширение режима : CM (complete main)
Параметр Endianness формата : Big
Идентификатор кодека : A_AC3
Продолжительность : 1 ч. 54 м.
Вид битрейта : Постоянный
Битрейт : 384 Кбит/сек
Каналы : 6 каналов
Расположение каналов : Front: L C R, Side: L R, LFE
Частота : 48,0 КГц
Битовая глубина : 16 бит
Метод сжатия : С потерями
Размер потока : 315 Мбайт (4%)
Заголовок : AC3 5.1ch 384 kbps - Дубляж
Язык : Russian
Default : Да
Forced : Нет
Аудио #2
Идентификатор : 3
Формат : DTS
Формат/Информация : Digital Theater Systems
Режим : 16
Параметр Endianness формата : Big
Идентификатор кодека : A_DTS
Продолжительность : 1 ч. 54 м.
Вид битрейта : Постоянный
Битрейт : 1509 Кбит/сек
Каналы : 6 каналов
Расположение каналов : Front: L C R, Side: L R, LFE
Частота : 48,0 КГц
Битовая глубина : 24 бит
Метод сжатия : С потерями
Размер потока : 1,21 Гбайт (15%)
Заголовок : DTS 5.1ch 1536 kbps (DTS-HD core) - Карусель
Язык : Russian
Default : Нет
Forced : Нет
Аудио #3
Идентификатор : 4
Формат : DTS
Формат/Информация : Digital Theater Systems
Режим : 16
Параметр Endianness формата : Big
Идентификатор кодека : A_DTS
Продолжительность : 1 ч. 54 м.
Вид битрейта : Постоянный
Битрейт : 1509 Кбит/сек
Каналы : 6 каналов
Расположение каналов : Front: L C R, Side: L R, LFE
Частота : 48,0 КГц
Битовая глубина : 24 бит
Метод сжатия : С потерями
Размер потока : 1,21 Гбайт (15%)
Заголовок : DTS 5.1ch 1536 kbps (DTS-HD core) - А.Гаврилов
Язык : Russian
Default : Нет
Forced : Нет
Аудио #4
Идентификатор : 5
Формат : DTS
Формат/Информация : Digital Theater Systems
Режим : 16
Параметр Endianness формата : Big
Идентификатор кодека : A_DTS
Продолжительность : 1 ч. 54 м.
Вид битрейта : Постоянный
Битрейт : 1510 Кбит/сек
Каналы : 6 каналов
Расположение каналов : Front: L C R, Side: L R, LFE
Частота : 48,0 КГц
Битовая глубина : 24 бит
Метод сжатия : С потерями
Размер потока : 1,21 Гбайт (15%)
Заголовок : DTS 5.1ch 1536 kbps (recode from TrueHD)
Язык : English
Default : Нет
Forced : Нет
Текст #1
Идентификатор : 6
Формат : UTF-8
Идентификатор кодека : S_TEXT/UTF8
Идентификатор кодека/Информация : UTF-8 Plain Text
Язык : Russian
Default : Нет
Forced : Нет
Текст #2
Идентификатор : 7
Формат : UTF-8
Идентификатор кодека : S_TEXT/UTF8
Идентификатор кодека/Информация : UTF-8 Plain Text
Язык : English
Default : Нет
Forced : Нет
Меню
00:00:00.000 : en:00:00:00.000
00:02:42.412 : en:00:02:42.412
00:04:20.259 : en:00:04:20.259
00:08:33.221 : en:00:08:33.221
00:11:30.439 : en:00:11:30.439
00:12:28.831 : en:00:12:28.831
00:17:55.741 : en:00:17:55.741
00:20:39.446 : en:00:20:39.446
00:23:16.686 : en:00:23:16.686
00:24:24.129 : en:00:24:24.129
00:30:19.317 : en:00:30:19.317
00:31:32.140 : en:00:31:32.140
00:33:34.679 : en:00:33:34.679
00:34:53.174 : en:00:34:53.174
00:38:50.828 : en:00:38:50.828
00:43:26.270 : en:00:43:26.270
00:46:46.428 : en:00:46:46.428
00:48:19.146 : en:00:48:19.146
00:51:01.558 : en:00:51:01.558
00:53:34.085 : en:00:53:34.085
00:55:16.855 : en:00:55:16.855
00:57:15.265 : en:00:57:15.265
00:58:17.118 : en:00:58:17.118
01:00:56.819 : en:01:00:56.819
01:01:37.276 : en:01:01:37.276
01:03:38.147 : en:01:03:38.147
01:04:39.625 : en:01:04:39.625
01:06:06.671 : en:01:06:06.671
01:09:13.566 : en:01:09:13.566
01:11:58.647 : en:01:11:58.647
01:13:19.061 : en:01:13:19.061
01:16:30.377 : en:01:16:30.377
01:20:20.690 : en:01:20:20.690
01:23:31.923 : en:01:23:31.923
01:26:06.077 : en:01:26:06.077
01:27:52.642 : en:01:27:52.642
01:29:44.420 : en:01:29:44.420
01:33:09.792 : en:01:33:09.792
01:34:50.434 : en:01:34:50.434
01:37:18.958 : en:01:37:18.958
01:39:22.039 : en:01:39:22.039
01:42:31.645 : en:01:42:31.645
01:44:54.287 : en:01:44:54.287
01:49:29.896 : en:01:49:29.896
Аудио
Формат : DTS
Формат/Информация : Digital Theater Systems
Режим : 16
Параметр Endianness формата : Big
Продолжительность : 1 ч. 54 м.
Вид битрейта : Постоянный
Битрейт : 1509 Кбит/сек
Каналы : 6 каналов
Расположение каналов : Front: L C R, Side: L R, LFE
Частота : 48,0 КГц
Битовая глубина : 24 бит
Метод сжатия : С потерями
Размер потока : 1,21 Гбайт (100%)

_________________
[Торрент-статистика]
[Профиль]  [ЛС] 
Показать сообщения:    
Ответить на тему

Текущее время: Сегодня 02:58

Часовой пояс: GMT + 4



Вы не можете начинать темы
Вы не можете отвечать на сообщения
Вы не можете редактировать свои сообщения
Вы не можете удалять свои сообщения
Вы не можете голосовать в опросах
Вы не можете прикреплять файлы к сообщениям
Вы не можете скачивать файлы