Спасатель / The Guardian (Эндрю Дэвис / Andrew Davis) [2006, США, боевик, драма, приключения, BDRip 720p] DUB, Original + SUB (rus)

Ответить на тему
 
Автор
Сообщение

awk05 ®

Пол:

Стаж: 8 лет 9 месяцев

Сообщений: 1334

Репутация: 278 [+] [-]

Откуда: Западная Украина Ривне

Пост 17-Фев-2014 07:45

[Цитировать] 

--Спасатель / The Guardian"Жертвуй всем, когда нужно спасти людей"-- Страна: США
Жанр: боевик, драма, приключения, фильм-катастрофа
Продолжительность: 02:19:04
Год выпуска 2006
Перевод: Профессиональный (полное дублирование) + Original
Субтитры: отсутствуют--Режиссёр: Эндрю Дэвис / Andrew Davis--В ролях: Кевин Костнер (Ben Randall), Эштон Кутчер (Jake Fischer), Нил МакДонаф (Jack Skinner), Мелисса Сейджмиллер (Emily Thomas), Клэнси Браун (Capt. William Hadley), Брайан Джерати (Billy Hodge), Села Уорд (Helen Randall), Омари Хардвик (Carl Billings), Майкл Рэди (Nick Zingaro), Алекс Дэниелс (Wild Bill), Джон Хёрд (Capt. Frank Larson)--Описание: Бен Рэнделл, легендарный пловец-спасатель когда-то в ужасной катастрофе потерял всю свою команду. Чтобы найти свое место в жизни, и забыть о том страшном событии, он решает пойти в Береговую охрану, где в его обязанности входит тренировка молодых спасателей. Здесь, он сталкивается с молодым и талантливым пловцом «с характером» Джейком Фишером. В процессе обучения Бен помогает Джейку скомбинировать его характер с его способностями. В конце обучения они вдвоем отправляются к Аляске, в Берингово море, где Джейку придется пройти самое важное испытание… --Качество видео:BDRip 720p
Формат видео: MKV
Видео кодек: AVC (High@L4.1)
Аудио кодек: AC3
Видео: 1280x688 (1.85:1), 23,976 кадра/сек, 6202 Кбит/сек, 0.294 Бит/(Пиксели*Кадры)
Аудио: 6 каналов Front: L C R, Side: L R, LFE, 48,0 КГц, 384 Кбит/сек, 16 бит [RUS] -- --

Знаете ли Вы, что...

* Для съемок сцен, которые проходили на Аляске, были закуплены 60 000 фунтов льда.
* Одним из студентов был Марк Ганглофф, Олимпийский чемпион Афин по плаванью.
* После ряда ураганов на юге США съемки фильма было решено перенести в Шривпорт, Штат Луизиана.
* В фильме использованы материалы съемок реальных спасательных случаев. Их можно видеть в сценах в учебной школе.

MediaInfo

Общее
Уникальный идентификатор : 200909215586397737813958463861725476650 (0x9725B51ACBB0C6A7B26053A9D866372A)
Полное имя : D:\Film\The Guardian.2006.720p.AVC.RUS.leonardo59.BDRip.mkv
Формат : Matroska
Версия формата : Version 2
Размер файла : 6,53 Гбайт
Продолжительность : 2 ч. 19 м.
Общий поток : 6720 Кбит/сек
Название фильма : -=Leonardo 59=-
Дата кодирования : UTC 2013-06-14 07:10:34
Программа кодирования : mkvmerge v5.8.0 ('No Sleep / Pillow') built on Sep 2 2012 15:37:04
Библиотека кодирования : libebml v1.2.3 + libmatroska v1.3.0
Видео
Идентификатор : 1
Формат : AVC
Формат/Информация : Advanced Video Codec
Профиль формата : High@L4.1
Параметр CABAC формата : Да
Параметр ReFrames формата : 8 кадров
Идентификатор кодека : V_MPEG4/ISO/AVC
Продолжительность : 2 ч. 19 м.
Битрейт : 6202 Кбит/сек
Ширина : 1280 пикселей
Высота : 688 пикселей
Соотношение сторон : 1,85:1
Режим частоты кадров : Постоянный
Частота кадров : 23,976 кадра/сек
Цветовое пространство : YUV
Субдискретизация насыщенности : 4:2:0
Битовая глубина : 8 бит
Тип развёртки : Прогрессивная
Бит/(Пиксели*Кадры) : 0.294
Размер потока : 6,02 Гбайт (92%)
Библиотека кодирования : x264 core 125 r2208 d9d2288
Настройки программы : cabac=1 / ref=8 / deblock=1:-3:-2 / analyse=0x3:0x133 / me=umh / subme=11 / psy=1 / psy_rd=1.00:0.10 / mixed_ref=1 / me_range=32 / chroma_me=1 / trellis=2 / 8x8dct=1 / cqm=0 / deadzone=21,11 / fast_pskip=0 / chroma_qp_offset=-3 / threads=12 / lookahead_threads=2 / sliced_threads=0 / nr=0 / decimate=1 / interlaced=0 / bluray_compat=0 / constrained_intra=0 / bframes=8 / b_pyramid=2 / b_adapt=2 / b_bias=0 / direct=1 / weightb=1 / open_gop=0 / weightp=2 / keyint=250 / keyint_min=23 / scenecut=40 / intra_refresh=0 / rc=crf / mbtree=0 / crf=18.0 / qcomp=0.60 / qpmin=0 / qpmax=69 / qpstep=4 / ip_ratio=1.40 / pb_ratio=1.30 / aq=2:1.00
Язык : English
Default : Да
Forced : Нет
Аудио
Идентификатор : 2
Формат : AC-3
Формат/Информация : Audio Coding 3
Расширение режима : CM (complete main)
Параметр Endianness формата : Big
Идентификатор кодека : A_AC3
Продолжительность : 2 ч. 19 м.
Вид битрейта : Постоянный
Битрейт : 384 Кбит/сек
Каналы : 6 каналов
Расположение каналов : Front: L C R, Side: L R, LFE
Частота : 48,0 КГц
Битовая глубина : 16 бит
Метод сжатия : С потерями
Размер потока : 382 Мбайт (6%)
Язык : Russian
Default : Да
Forced : Да
Текст #1
Идентификатор : 3
Формат : PGS
Режим смешивания : zlib
Идентификатор кодека : S_HDMV/PGS
Идентификатор кодека/Информация : The same subtitle format used on BDs/HD-DVDs
Язык : Russian
Default : Да
Forced : Нет
Текст #2
Идентификатор : 4
Формат : PGS
Режим смешивания : zlib
Идентификатор кодека : S_HDMV/PGS
Идентификатор кодека/Информация : The same subtitle format used on BDs/HD-DVDs
Язык : English
Default : Нет
Forced : Нет

Скриншоты




_________________
[Торрент-статистика]
[Профиль]  [ЛС] 
Показать сообщения:    
Ответить на тему

Текущее время: Сегодня 11:33

Часовой пояс: GMT + 4



Вы не можете начинать темы
Вы не можете отвечать на сообщения
Вы не можете редактировать свои сообщения
Вы не можете удалять свои сообщения
Вы не можете голосовать в опросах
Вы не можете прикреплять файлы к сообщениям
Вы не можете скачивать файлы