Соучастник / Collateral (Майкл Манн / Michael Mann) [2004 г.,США, Триллер, драма, криминал, BDRip, 1080p] DUB + MVO + Original +Sab

Ответить на тему
 
Автор
Сообщение

awk05 ®

Пол:

Стаж: 8 лет 9 месяцев

Сообщений: 1334

Репутация: 278 [+] [-]

Откуда: Западная Украина Ривне

Пост 17-Фев-2014 06:20

[Цитировать] 

--Соучастник / Collateral-- Год выпуска: 2004
Страна: США, DreamWorks
Жанр: Триллер, драма, криминал
Продолжительность: 01:59:56
Перевод: Профессиональный (полное дублирование) / Проф. многоголосый
Субтитры: есть--
Режиссер: Майкл Манн / Michael Mann--
В ролях: Том Круз (Vincent), Джейми Фокс (Max), Джада Пинкетт Смит (Annie), Марк Руффало (Fanning), Брюс МакГилл (Pedrosa), Ирма П. Холл (Ida), Бэрри Шебака Хенли (Daniel), Питер Берг (Richard Weidner), Хавьер Бардем (Felix), Эмилио Ривера (Paco), Ричард Т. Джонс(Traffic Cop #1), Джейми МакБрайд(Traffic Cop #2), Бодхи Элфмэн(Young Professional Man), Деби Мейзар(Young Professional Woman), Клеа Скотт (Fed #1), Уэйд Уильямс(Fed #2), Пол Адельштейн(Fed #3)--
Описание: Захватывающий триллер от режиссера легендарной картины "Схватка", Майкла Манна, с Томом Крузом в главной роли. Действие разворачивается в Лос-Анджелесе. Макс - хороший таксист в хорошей машине с хорошей репутацией в обществе. Каждый день он просыпается с мыслями о том, что сегодняшний день станет последним в его старой и бессмысленной жизни - мечта о собственном автопарке осуществится. Но день проходит, а за ним неделя, месяцы, года – жизнь уходит, оставляя только морщины на лице и надежду на мечту, которой он рад поделится со своими случайными и одноразовыми попутчиками. Но в этот раз спокойный вечер обернулся настоящим кошмаром. К нему подсел неразговорчивый человек, предложивший за 700 баксов доставить его по пяти разным точкам в городе. Водитель оказывается в положении заложника, когда выясняется, что ночной пассажир Винсент - натуральный наемный убийца, который заставляет его наматывать километры по ночному Лос-Анджелесу от одной жертвы к другой. Макс вступает с киллером в опасную игру, пытаясь предотвратить убийства...--Качество видео:BDRip 1080p
Формат видео: MKV
Видео кодек: AVC (High@L4.1)
Аудио кодек: AC3
Видео: 1920x808 (2.40:1), 23,976 кадра/сек, 7975 Кбит/сек, 0.214 Бит/(Пиксели*Кадры)
Аудио 1: 6 каналов Front: L C R, Side: L R, LFE, 48,0 КГц, 384 Кбит/сек, 16 бит [RUS]
Аудио 2: 6 каналов Front: L C R, Side: L R, LFE, 48,0 КГц, 384 Кбит/сек, 16 бит [RUS] Tycoon-studio
Аудио 3: 6 каналов Front: L C R, Side: L R, LFE, 48,0 КГц, 1509 Кбит/сек, 24 бит [ENG]-- --

Знаете ли Вы, что...

* Роль водителя такси Макса мог сыграть Адам Сэндлер, однако в итоге роль досталась Джеми Фоксу.
* Вэлу Килмеру сулили роль детектива, однако из-за постоянных переносов съемок расписание сдвинулось и совпало со съемками «Александра». В итоге актер предпочел поработать под началом Оливера Стоуна.
* Джеймс Ньютон заменил Ханса Зиммера, также по причине задержки начала съемок.
* В проекте мог засветиться и Рассел Кроу, ему должна была достаться роль Винсента. Эту роль мог заполучить и Эдвард Нортон.
* Съемки должны были пройти в Манхэттене, однако режиссер Майкл Манн остался недоволен данным местом, и решил отснять весь материал в Лос-Анджелесе.
* Для того, чтобы помочь Тому Крузу и Джэми Фоксу лучше сыграть свои роли, Майкл Манн написал увесистые биографии Винсента и Макса, где подробно рассказал о том или ином этапе жизни персонажа.
* Фрэнк Дарабонт написал черновую версию сценария еще в сентябре 2000 года. Однако впоследствии его сценарий был существенно переработан.
* Роль Винсента была предложена Колину Фарреллу.
* Когда Макс и Винсент навещают маму Макса в больнице, она говорит, что Макс «может стоять напротив зеркала и разговаривать с самим собою». Принимая во внимания, что Макс – водитель такси, данная фраза – ссылка на сцену «Ты со мной говоришь?» из «Таксиста» (1976).
На одной из фотографий в палате Айды изображена Миша Бартон. На двух других фотографиях – кадры из сериалов «Фирменный рецепт» (1998) и «Сестра, Сестра» (1994).
* По словам Майкла Манна, Винсент способен раствориться в толпе, быть абсолютно незаметным среди множества людей. Во время подготовки к своей роли Том Круз работал курьером «FedEx», доставляя посылки на один из рынков Лос-Анджелеса. Никто его не узнал.
* После трех недель съёмок Пол Камерон (оператор) покинул проект из-за творческих разногласий. Майкл Манн заменил его Дионом Биби.
* Пистолет, который использует Винсент в джаз-клубе, - Ruger Mk III .22. Другой пистолет Винсента – Heckler and Koch (HK) USP .45ACP.
* События фильма происходят 24-25 января 2004 года.
* Стюарт Битти (сценарист) хотел, чтобы Роберт Де Ниро сыграл Макса. Де Ниро уже играл таксиста в фильме Мартина Скорсезе, однако Макс – абсолютная противоположность Трэвису Биклу. Студия посчитала, что роль Макса должен сыграть более молодой актер.
* Фильм начинается в аэропорту и заканчивается в метро. «Схватка» (1995) Майкла Манна начинается в метро и заканчивается в аэропорту.
* Перед тем как Майкл Манн занял режиссерское кресло, продюсеры предлагали Спайку Ли, Мартину Скорсезе, Фернанду Мейреллишу и Стивену Спилбергу поставить фильм.
* Том Круз проходил подготовку по обращению с оружием под руководством Мика Гулда. Майкл Манн также тренировался в стрельбе из различных видов оружия, для того чтобы понять, как лучше всего снять экшн-сцены.
* Флэшка Винсента – PNY Attaché.
* Компьютер Винсента – HP TC-1100 tablet PC.
* В фильме, оперативная группа агентов ФБР состоит из настоящих офицеров оперативных подразделений ФБР, Администрации по контролю за применением законов о наркотиках и полиции Лос-Анджелеса.
* Солнцезащитные очки Винсента - Silhouette 4048.
* Телефон Винсента - Nokia 6800.
* Фамилия Макса – Дурошер. Его полное имя можно узнать, обратив внимание на его карточку водителя.
* Ближе к концовке фильма на дисплее в метро можно заметить надпись: «Сегодня 25 января. Время 5:40 утра». Также в фильме содержатся другие ссылки на время: 21:30 – на дисплее «Fare reader» Макса, перед тем как Винсент убивает свою вторую жертву. 22:00 – когда агент Фэннинг звонит своему коллеге из морга. 2:20 – агенты ФБР едут в клуб. 4:47 – когда Макс звонит Энни по сотовому телефону с крыши многоэтажного гаража.
* Винсент убивает 12 человек.
* Одна из немногих картин без начальных титров, более того, зрители, случайно попавшие на просмотр, не узнают и названия, так как все титры начинаются лишь по окончании фильма с надписи «Режиссер Майкл Манн».
* Около 80 % сцен картины снимались на цифровую видеокамеру, так как в основном развитие сюжета происходит в темное время суток

MediaInfo

Общее
Уникальный идентификатор : 246568041771164511175312153535035626026 (0xB97F470A153060098058328165EA522A)
Полное имя : D:\Film\Souchastnik.2004.x264.BDRip.1080p-kinozal.tv-HD.mkv
Формат : Matroska
Версия формата : Version 2
Размер файла : 8,67 Гбайт
Продолжительность : 1 ч. 59 м.
Общий поток : 10,4 Мбит/сек
Название фильма : -=kinozal.tv-HD=-
Дата кодирования : UTC 2010-03-22 13:44:21
Программа кодирования : mkvmerge v3.1.0 ('Happy up here') built on Jan 19 2010 12:09:24
Библиотека кодирования : libebml v0.7.9 + libmatroska v0.8.1
Видео
Идентификатор : 1
Формат : AVC
Формат/Информация : Advanced Video Codec
Профиль формата : High@L4.1
Параметр CABAC формата : Да
Параметр ReFrames формата : 5 кадров
Идентификатор кодека : V_MPEG4/ISO/AVC
Продолжительность : 1 ч. 59 м.
Битрейт : 7975 Кбит/сек
Ширина : 1920 пикселей
Высота : 808 пикселей
Соотношение сторон : 2,40:1
Режим частоты кадров : Постоянный
Частота кадров : 23,976 кадра/сек
Цветовое пространство : YUV
Субдискретизация насыщенности : 4:2:0
Битовая глубина : 8 бит
Тип развёртки : Прогрессивная
Бит/(Пиксели*Кадры) : 0.214
Размер потока : 6,49 Гбайт (75%)
Библиотека кодирования : x264 core 88 r1471 1144615
Настройки программы : cabac=1 / ref=5 / deblock=1:0:0 / analyse=0x3:0x133 / me=umh / subme=7 / psy=1 / psy_rd=1.00:0.00 / mixed_ref=1 / me_range=16 / chroma_me=1 / trellis=1 / 8x8dct=1 / cqm=0 / deadzone=21,11 / fast_pskip=1 / chroma_qp_offset=-2 / threads=6 / sliced_threads=0 / nr=0 / decimate=1 / mbaff=0 / constrained_intra=0 / bframes=3 / b_pyramid=2 / b_adapt=2 / b_bias=0 / direct=3 / wpredb=1 / wpredp=2 / keyint=250 / keyint_min=25 / scenecut=40 / intra_refresh=0 / rc=2pass / mbtree=0 / bitrate=7975 / ratetol=1.0 / qcomp=0.60 / qpmin=10 / qpmax=51 / qpstep=4 / cplxblur=20.0 / qblur=0.5 / ip_ratio=1.40 / pb_ratio=1.30 / aq=1:1.00
Язык : English
Default : Нет
Forced : Нет
Аудио #1
Идентификатор : 2
Формат : AC-3
Формат/Информация : Audio Coding 3
Расширение режима : CM (complete main)
Параметр Endianness формата : Big
Идентификатор кодека : A_AC3
Продолжительность : 1 ч. 59 м.
Вид битрейта : Постоянный
Битрейт : 448 Кбит/сек
Каналы : 6 каналов
Расположение каналов : Front: L C R, Side: L R, LFE
Частота : 48,0 КГц
Битовая глубина : 16 бит
Метод сжатия : С потерями
Задержка видео : 3 с. 400 мс.
Размер потока : 384 Мбайт (4%)
Заголовок : Dub
Язык : Russian
Default : Да
Forced : Нет
Аудио #2
Идентификатор : 3
Формат : AC-3
Формат/Информация : Audio Coding 3
Расширение режима : CM (complete main)
Параметр Endianness формата : Big
Идентификатор кодека : A_AC3
Продолжительность : 1 ч. 59 м.
Вид битрейта : Постоянный
Битрейт : 448 Кбит/сек
Каналы : 6 каналов
Расположение каналов : Front: L C R, Side: L R, LFE
Частота : 48,0 КГц
Битовая глубина : 16 бит
Метод сжатия : С потерями
Задержка видео : 3 с. 400 мс.
Размер потока : 384 Мбайт (4%)
Заголовок : Tycoon-studio
Язык : Russian
Default : Нет
Forced : Нет
Аудио #3
Идентификатор : 4
Формат : DTS
Формат/Информация : Digital Theater Systems
Режим : 16
Параметр Endianness формата : Big
Идентификатор кодека : A_DTS
Продолжительность : 1 ч. 59 м.
Вид битрейта : Постоянный
Битрейт : 1509 Кбит/сек
Каналы : 6 каналов
Расположение каналов : Front: L C R, Side: L R, LFE
Частота : 48,0 КГц
Битовая глубина : 24 бит
Метод сжатия : С потерями
Размер потока : 1,26 Гбайт (15%)
Заголовок : Original
Язык : English
Default : Нет
Forced : Нет
Текст #1
Идентификатор : 5
Формат : UTF-8
Идентификатор кодека : S_TEXT/UTF8
Идентификатор кодека/Информация : UTF-8 Plain Text
Язык : Russian
Default : Да
Forced : Нет
Текст #2
Идентификатор : 6
Формат : UTF-8
Идентификатор кодека : S_TEXT/UTF8
Идентификатор кодека/Информация : UTF-8 Plain Text
Язык : English
Default : Нет
Forced : Нет

_________________
[Торрент-статистика]
[Профиль]  [ЛС] 
Показать сообщения:    
Ответить на тему

Текущее время: Сегодня 06:22

Часовой пояс: GMT + 4



Вы не можете начинать темы
Вы не можете отвечать на сообщения
Вы не можете редактировать свои сообщения
Вы не можете удалять свои сообщения
Вы не можете голосовать в опросах
Вы не можете прикреплять файлы к сообщениям
Вы не можете скачивать файлы