Сотовый / Cellular (Дэвид Р. Эллис / David R. Ellis) [2004 г., США, Германия, Триллер, боевик, криминал, BDRip 720p] DUB + MVO + Original + Sub

Ответить на тему
 
Автор
Сообщение

awk05 ®

Пол:

Стаж: 8 лет 9 месяцев

Сообщений: 1334

Репутация: 278 [+] [-]

Откуда: Западная Украина Ривне

Пост 17-Фев-2014 04:51

[Цитировать] 

--Сотовый / Cellular«Когда связь имеет значение»-- Год выпуска: 2004
Страна: США, Германия
Жанр: Триллер, боевик, криминал
Продолжительность: 01:33:59
Перевод: Профессиональный (полное дублирование) + Профессиональный (многоголосый, закадровый) Tycoon
Субтитры: Русские (лицензия), русские (Tycoon), английские--
Режиссер: Дэвид Р. Эллис / David R. Ellis--
В ролях: Ким Бейсингер (Джессика Мартин), Крис Эванс (Райан), Джейсон Стэйтем (Ethan), Уильям Х. Мэйси (Sgt. Bob Mooney), Ноа Эммерик (Jack Tanner), Адам Тейлор Гордон (Ricky Martin), Ричард Берджи (Craig Martin), Валери Крус (Dana Bayback), Джессика Бил (Chloe), Эрик Этебари (Dmitri)--
Описание: Возвращаясь с пляжа погожим ясным деньком, Райан и не подозревал, что уже к вечеру он из безответственного шалопая превратится в настоящего мужчину - все изменит один телефонный звонок.
Джессику похищают и запирают на чердаке. Вся её надежда на неисправный, едва работающий телефон. Позвонив по первому попавшемуся номеру, она сообщает Райану (случайному молодому человеку) о своем похищении и о том, что её хотят убить, а также и её мужа и сына, за которыми теперь отправились похитители.
Она не знает, где находится, а у единственного возможного спасителя скоро сядет батарейка телефона. Теперь Райану, знакомому с Джессикой только по ее паническому голосу, придется бороться со временем, которого остается все меньше, и постоянными проблемами со связью и лицом столкнуться с убийством и обманом.--

Качество видео:BDRip 720p
Формат видео: MKV
Видео кодек: AVC (High@L4.1)
Аудио кодек: AC3, DTS
Видео: 1280x720 (16:9), 23,976 кадра/сек, 5140 Кбит/сек, 0.233 Бит/(Пиксели*Кадры)
Аудио 1: 6 каналов Front: L C R, Side: L R, LFE, 48,0 КГц, 384 Кбит/сек, 16 бит [RUS]
Аудио 2: 6 каналов Front: L C R, Side: L R, LFE, 48,0 КГц, 1510 Кбит/сек, 24 бит [RUS] Tycoon
Аудио 3: 6 каналов Front: L C R, Side: L R, LFE, 48,0 КГц, 1509 Кбит/сек, 24 бит [ENG]-- --

Знаете ли Вы, что...

* Эрик Бресс и Дж. Макки Груббер переработали сценарий фильма, но при этом они так и не удостоились упоминания в титрах.
* Ларри Коэн работал над сценарием фильма в тот период, когда пытался продать сценарий к «Телефонной будке» (2002). В статье в журнале «New Yorker» он рассказал, что его замыслом было создать фильм полную противоположность «Телефонной будке», где герой не может отойти от телефона, в то время как в новом фильме он привязан к телефону, но может идти куда угодно. Его друзья не поняли замысел и сказали, что он просто дважды написал один и тот же сценарий.
* В течение фильма неоднократно можно заметить различные отсылки к киностудии New Line Cinema, финансировавшей проект. Босс киностудии Роберт Шэй появляется в камео в качестве раздражённого мужчины в полицейском участке. Продюсер картины Дин Дэвлин появляется в камео как водитель такси, который везёт Райана в одной из сцен фильма. На школьном рюкзаке Рикки можно увидеть постер картины «Властелин Колец: Братство Кольца (2001), а по телевизору в доме похитителей идёт «Пункт назначения» (2000). Оба фильма также поставлены киностудией New Line Cinema.

MediaInfo

Общее
Уникальный идентификатор : 177953526899142535822539484377198991038 (0x85E09A4512246907A8BF2ADA0A4996BE)
Полное имя : D:\Film\Cellular.2004.BD.Rip.720p.h264.2xRus.Eng.mkv
Формат : Matroska
Версия формата : Version 2
Размер файла : 5,61 Гбайт
Продолжительность : 1 ч. 33 м.
Общий поток : 8545 Кбит/сек
Дата кодирования : UTC 2009-06-07 22:03:12
Программа кодирования : mkvmerge v2.8.0 ('The Tree') built on May 9 2009 18:02:06
Библиотека кодирования : libebml v0.7.7 + libmatroska v0.8.1
Видео
Идентификатор : 1
Формат : AVC
Формат/Информация : Advanced Video Codec
Профиль формата : High@L4.1
Параметр CABAC формата : Да
Параметр ReFrames формата : 6 кадров
Параметр GOP формата : N=1
Идентификатор кодека : V_MPEG4/ISO/AVC
Продолжительность : 1 ч. 33 м.
Битрейт : 5140 Кбит/сек
Ширина : 1280 пикселей
Высота : 720 пикселей
Соотношение сторон : 16:9
Режим частоты кадров : Постоянный
Частота кадров : 23,976 кадра/сек
Цветовое пространство : YUV
Субдискретизация насыщенности : 4:2:0
Битовая глубина : 8 бит
Тип развёртки : Прогрессивная
Бит/(Пиксели*Кадры) : 0.233
Размер потока : 3,26 Гбайт (58%)
Библиотека кодирования : x264 core 67 r1145M d2e1e1c
Настройки программы : cabac=1 / ref=6 / deblock=1:-3:-3 / analyse=0x3:0x113 / me=umh / subme=9 / psy_rd=1.2:0.0 / mixed_ref=1 / me_range=32 / chroma_me=1 / trellis=2 / 8x8dct=1 / cqm=0 / deadzone=21,11 / chroma_qp_offset=-2 / threads=6 / nr=0 / decimate=1 / mbaff=0 / bframes=16 / b_pyramid=1 / b_adapt=2 / b_bias=0 / direct=3 / wpredb=1 / keyint=250 / keyint_min=25 / scenecut=40 / rc=2pass / bitrate=5140 / ratetol=1.0 / qcomp=0.60 / qpmin=10 / qpmax=51 / qpstep=4 / cplxblur=20.0 / qblur=0.5 / ip_ratio=1.40 / pb_ratio=1.30 / aq=1:0.80
Язык : English
Default : Да
Forced : Нет
Аудио #1
Идентификатор : 2
Формат : AC-3
Формат/Информация : Audio Coding 3
Расширение режима : CM (complete main)
Параметр Endianness формата : Big
Идентификатор кодека : A_AC3
Продолжительность : 1 ч. 33 м.
Вид битрейта : Постоянный
Битрейт : 384 Кбит/сек
Каналы : 6 каналов
Расположение каналов : Front: L C R, Side: L R, LFE
Частота : 48,0 КГц
Битовая глубина : 16 бит
Метод сжатия : С потерями
Размер потока : 258 Мбайт (4%)
Заголовок : Dublyazh AC3 5.1 384 kbps
Язык : Russian
Default : Да
Forced : Нет
Аудио #2
Идентификатор : 3
Формат : DTS
Формат/Информация : Digital Theater Systems
Режим : 16
Параметр Endianness формата : Big
Идентификатор кодека : A_DTS
Продолжительность : 1 ч. 33 м.
Вид битрейта : Постоянный
Битрейт : 1510 Кбит/сек
Каналы : 6 каналов
Расположение каналов : Front: L C R, Side: L R, LFE
Частота : 48,0 КГц
Битовая глубина : 24 бит
Метод сжатия : С потерями
Размер потока : 1015 Мбайт (18%)
Заголовок : Tycoon DTS 5.1 1536 kbps
Язык : Russian
Default : Нет
Forced : Нет
Аудио #3
Идентификатор : 4
Формат : DTS
Формат/Информация : Digital Theater Systems
Режим : 16
Параметр Endianness формата : Big
Идентификатор кодека : A_DTS
Продолжительность : 1 ч. 33 м.
Вид битрейта : Постоянный
Битрейт : 1509 Кбит/сек
Каналы : 6 каналов
Расположение каналов : Front: L C R, Side: L R, LFE
Частота : 48,0 КГц
Битовая глубина : 24 бит
Метод сжатия : С потерями
Размер потока : 1015 Мбайт (18%)
Заголовок : DTS 5.1 1536 kbps
Язык : English
Default : Нет
Forced : Нет
Текст #1
Идентификатор : 5
Формат : UTF-8
Идентификатор кодека : S_TEXT/UTF8
Идентификатор кодека/Информация : UTF-8 Plain Text
Заголовок : Licence
Язык : Russian
Default : Нет
Forced : Нет
Текст #2
Идентификатор : 6
Формат : UTF-8
Идентификатор кодека : S_TEXT/UTF8
Идентификатор кодека/Информация : UTF-8 Plain Text
Заголовок : Tycoon
Язык : Russian
Default : Нет
Forced : Нет
Текст #3
Идентификатор : 7
Формат : UTF-8
Идентификатор кодека : S_TEXT/UTF8
Идентификатор кодека/Информация : UTF-8 Plain Text
Язык : English
Default : Нет
Forced : Нет

_________________
[Торрент-статистика]
[Профиль]  [ЛС] 
Показать сообщения:    
Ответить на тему

Текущее время: Сегодня 11:14

Часовой пояс: GMT + 4



Вы не можете начинать темы
Вы не можете отвечать на сообщения
Вы не можете редактировать свои сообщения
Вы не можете удалять свои сообщения
Вы не можете голосовать в опросах
Вы не можете прикреплять файлы к сообщениям
Вы не можете скачивать файлы