Смертельная гонка / Death Race (Пол В.С. Андерсон / Paul W.S. Anderson) [2008, США, Германия, Великобритания, фантастика, боевик, триллер, BDRip 1080p] Dub + Original Eng + Sub Rus, Eng

Ответить на тему
 
Автор
Сообщение

awk05 ®

Пол:

Стаж: 8 лет 10 месяцев

Сообщений: 1334

Репутация: 278 [+] [-]

Откуда: Западная Украина Ривне

Пост 17-Фев-2014 00:47

[Цитировать] 

--Смертельная гонка / Death Race-- Год выпуска: 2008
Страна: США, Германия, Великобритания
Жанр: фантастика, боевик, триллер
Продолжительность: 01:50:35
Перевод: Профессиональный (полное дублирование)
Cубтитры: русские, английские--
Режиссер: Пол В.С. Андерсон / Paul W.S. Anderson--
В ролях: Джейсон Стэйтем (Jensen Ames), Джоан Аллен (Hennessey), Иэн МакШейн (Coach), Тайриз Гибсон (Machine Gun Joe), Натали Мартинез (Case), Макс Райан (Pachenko), Джейсон Кларк (Lists), Фредерик Колер (Gunner), Джейкоб Варгас (Gunner), Джастин Мэдер (Travis Colt)--
Описание: Трехкратный чемпион-гонщик Дженсен Эймс посажен в тюрьму за убийство, которого не совершал. Вместо того, чтобы выпустить его на свободу, тюремщики заставляют его вместе с самыми отъявленными преступниками участвовать в кровавом состязании. Оказавшись за рулем чудовищного автомобиля, оборудованного автоматами, огнеметами и гранатометами, этот отчаянный человек разрушит все на своем пути, чтобы выиграть самую зрелищную гонку на выживание на Земле.--
Качество видео:BDRip 1080p
Формат видео: MKV
Видео кодек: AVC (High@L4.1)
Аудио кодек: DTS
Видео: 1 920x816 (2.35:1), 23,976 кадра/сек, 8770 Кбит/сек, 0.233 Бит/(Пиксели*Кадры)
Аудио 1: 6 каналов Front: L C R, Side: L R, LFE, 48,0 КГц, 755 Кбит/сек, 24 бит [RUS]
Аудио 2: 6 каналов Front: L C R, Side: L R, LFE, 48,0 КГц, 1509 Кбит/сек, 24 бит[ENG]-- --

MediaInfo

Общее
Уникальный идентификатор : 331764299224139020181043234886010303119 (0xF9977AD67ED94765725A10D33FC0728F)
Полное имя : D:\Film\Смертельная гонка.2008.BDRip.1080p.mkv
Формат : Matroska
Размер файла : 8,53 Гбайт
Продолжительность : 1 ч. 50 м.
Общий поток : 11,0 Мбит/сек
Программа кодирования : AVI-Mux GUI 1.17.7, Aug 8 2006 20:59:17
Библиотека кодирования : matroska muxer by Alexander Noe, build date Aug 8 2006
Видео
Идентификатор : 1
Формат : AVC
Формат/Информация : Advanced Video Codec
Профиль формата : High@L4.1
Параметр CABAC формата : Да
Параметр ReFrames формата : 5 кадров
Идентификатор кодека : V_MPEG4/ISO/AVC
Битрейт : 8770 Кбит/сек
Ширина : 1920 пикселей
Высота : 816 пикселей
Соотношение сторон : 2,35:1
Режим частоты кадров : Переменный
Частота кадров в оригинале : 23,976 кадра/сек
Цветовое пространство : YUV
Субдискретизация насыщенности : 4:2:0
Битовая глубина : 8 бит
Тип развёртки : Прогрессивная
Бит/(Пиксели*Кадры) : 0.233
Библиотека кодирования : x264 core 65 r1051M 549cc55
Настройки программы : cabac=1 / ref=5 / deblock=1:0:0 / analyse=0x3:0x133 / me=umh / subme=7 / psy_rd=1.0:0.0 / mixed_ref=1 / me_range=16 / chroma_me=1 / trellis=1 / 8x8dct=1 / cqm=0 / deadzone=21,11 / chroma_qp_offset=-2 / threads=6 / nr=0 / decimate=1 / mbaff=0 / bframes=3 / b_pyramid=1 / b_adapt=1 / b_bias=0 / direct=1 / wpredb=1 / keyint=250 / keyint_min=25 / scenecut=40(pre) / rc=2pass / bitrate=8770 / ratetol=1.0 / qcomp=0.60 / qpmin=10 / qpmax=51 / qpstep=4 / cplxblur=20.0 / qblur=0.5 / ip_ratio=1.40 / pb_ratio=1.30 / aq=1:1.00
Язык : English
Default : Да
Forced : Нет
Аудио #1
Идентификатор : 2
Формат : DTS
Формат/Информация : Digital Theater Systems
Режим : 16
Параметр Endianness формата : Big
Идентификатор кодека : A_DTS
Продолжительность : 1 ч. 50 м.
Вид битрейта : Постоянный
Битрейт : 755 Кбит/сек
Каналы : 6 каналов
Расположение каналов : Front: L C R, Side: L R, LFE
Частота : 48,0 КГц
Битовая глубина : 24 бит
Метод сжатия : С потерями
Размер потока : 597 Мбайт (7%)
Заголовок : DTS 5.1 (768 kbps)
Язык : Russian
Default : Да
Forced : Нет
Аудио #2
Идентификатор : 3
Формат : DTS
Формат/Информация : Digital Theater Systems
Режим : 16
Параметр Endianness формата : Big
Идентификатор кодека : A_DTS
Продолжительность : 1 ч. 50 м.
Вид битрейта : Постоянный
Битрейт : 1509 Кбит/сек
Каналы : 6 каналов
Расположение каналов : Front: L C R, Side: L R, LFE
Частота : 48,0 КГц
Битовая глубина : 24 бит
Метод сжатия : С потерями
Размер потока : 1,17 Гбайт (14%)
Заголовок : DTS 5.1 (1536 kbps)
Язык : English
Default : Да
Forced : Нет
Текст
Идентификатор : 4
Формат : UTF-8
Идентификатор кодека : S_TEXT/UTF8
Идентификатор кодека/Информация : UTF-8 Plain Text
Язык : English
Default : Да
Forced : Нет

Скриншоты


_________________
[Торрент-статистика]
[Профиль]  [ЛС] 
Показать сообщения:    
Ответить на тему

Текущее время: Сегодня 07:28

Часовой пояс: GMT + 4



Вы не можете начинать темы
Вы не можете отвечать на сообщения
Вы не можете редактировать свои сообщения
Вы не можете удалять свои сообщения
Вы не можете голосовать в опросах
Вы не можете прикреплять файлы к сообщениям
Вы не можете скачивать файлы