Горизонт / Скайлайн / Skyline (Колин Штраус / Colin Strause, Грег Штраус / Greg Strause) [2010 г., США, научная фантастика, боевик, триллер, BDRip 1080p] DUB + Original + Sub

Ответить на тему
 
Автор
Сообщение

awk05 ®

Пол:

Стаж: 8 лет 10 месяцев

Сообщений: 1334

Репутация: 278 [+] [-]

Откуда: Западная Украина Ривне

Пост 16-Фев-2014 23:05

[Цитировать] 

--Горизонт / Скайлайн / Skyline«Не смотри вверх»-- Страна: США
Жанр: научная фантастика, боевик, триллер
Продолжительность: 1 ч. 37 м.
Год выпуска 2010
Перевод: Профессиональный (полное дублирование) + Original
Субтитры: Russian--
Режиссёр: Колин Штраус / Colin Strause, Грег Штраус / Greg Strause--
В ролях: Эрик Бальфур (Jarrod), Скотти Томпсон (Elaine), Бриттани Дэниэл (Candice), Кристал Рид (Denise), Нил Хопкинс (Ray), Дэвид Зайас (Oliver), Дональд Фэйсон (Terry), Робин Гэммел (Walt), Таня Ньюболд (Jen), Дж. Пол Бомер (Colin), Фет Махатонгди (Airplane Mom / Bartender), Байрон Макинтайр (Limo Driver)--
Описание: Фантастический триллер братьев Колина и Грега Штраусов (постановщиков экшена "Чужие против Хищника: Реквием"), снятый без участия какой-либо студии: братья самостоятельно финансировали свою ленту, работа над которой заняла меньше года. Студия братьев Hydraulx работала над спецэффектами для "Аватара", так что можно ожидать, что картина будет зрелищной даже без внушительного бюджета. Сюжет рассказывает об ослепительных огнях, которые однажды ночью опускаются на спящий Лос-Анджелес. Вскоре становится ясно, что огни исходят от прибывших на землю инопланетян, которые собираются уничтожить все человечество, выманивая людей ярким светом и убивая их. Горстка жителей объединяется, чтобы противостоять внеземной силе и постараться пережить стремительное истребление землян.--
Качество видео:BDRip 1080p
Формат видео: MKV
Видео кодек: AVC (High@L4.1)
Аудио кодек: AC3
Видео: 1920x800 (2.40:1), 23,976 кадра/сек, 5371 Кбит/сек, 0.146 Бит/(Пиксели*Кадры)
Аудио 1: 6 каналов Front: L C R, Side: L R, LFE, 48,0 КГц, 448 Кбит/сек, 16 бит [RUS]
Аудио 2: 6 каналов Front: L C R, Side: L R, LFE, 48,0 КГц, 448 Кбит/сек, 16 бит[ENG]--

MediaInfo

Общее
Уникальный идентификатор : 215741672277801422558182509674202206567 (0xA24E55AE30FE5482AA94AE0E8B9D1167)
Полное имя : D:\Film\Skajlajn.2010.BDRip1080p.by.MT.mkv
Формат : Matroska
Версия формата : Version 2
Размер файла : 4,37 Гбайт
Продолжительность : 1 ч. 37 м.
Режим общего битрейта : Переменный
Общий поток : 6394 Кбит/сек
Дата кодирования : UTC 2011-02-18 06:26:29
Программа кодирования : mkvmerge v4.4.0 ('Die Wiederkehr') сборка от Oct 31 2010 21:52:48
Библиотека кодирования : libebml v1.0.0 + libmatroska v1.0.0
Видео
Идентификатор : 1
Формат : AVC
Формат/Информация : Advanced Video Codec
Профиль формата : High@L4.1
Параметр CABAC формата : Да
Параметр ReFrames формата : 3 кадра
Режим смешивания : Header stripping
Идентификатор кодека : V_MPEG4/ISO/AVC
Продолжительность : 1 ч. 37 м.
Вид битрейта : Переменный
Битрейт : 5371 Кбит/сек
Номинальный битрейт : 5808 Кбит/сек
Максимальный битрейт : 40,0 Мбит/сек
Ширина : 1920 пикселей
Высота : 800 пикселей
Соотношение сторон : 2,40:1
Соотношение сторон в оригинале : 2,40:1
Режим частоты кадров : Постоянный
Частота кадров : 23,976 кадра/сек
Цветовое пространство : YUV
Субдискретизация насыщенности : 4:2:0
Битовая глубина : 8 бит
Тип развёртки : Прогрессивная
Бит/(Пиксели*Кадры) : 0.146
Размер потока : 3,67 Гбайт (84%)
Библиотека кодирования : x264 core 112 r1867 22bfd31
Настройки программы : cabac=1 / ref=4 / deblock=1:0:0 / analyse=0x3:0x113 / me=hex / subme=7 / psy=1 / psy_rd=1.00:0.00 / mixed_ref=1 / me_range=16 / chroma_me=1 / trellis=0 / 8x8dct=1 / cqm=0 / deadzone=21,11 / fast_pskip=1 / chroma_qp_offset=-2 / threads=12 / sliced_threads=0 / slices=4 / nr=0 / decimate=1 / interlaced=0 / constrained_intra=0 / bframes=3 / b_pyramid=1 / b_adapt=1 / b_bias=0 / direct=1 / weightb=1 / open_gop=0 / weightp=2 / keyint=24 / keyint_min=2 / scenecut=40 / intra_refresh=0 / rc_lookahead=24 / rc=2pass / mbtree=1 / bitrate=5808 / ratetol=1.0 / qcomp=0.60 / qpmin=10 / qpmax=51 / qpstep=4 / cplxblur=20.0 / qblur=0.5 / vbv_maxrate=40000 / vbv_bufsize=30000 / nal_hrd=vbr / ip_ratio=1.40 / aq=1:1.00
Язык : Russian
Default : Да
Forced : Нет
Аудио #1
Идентификатор : 2
Формат : AC-3
Формат/Информация : Audio Coding 3
Расширение режима : CM (complete main)
Параметр Endianness формата : Big
Режим смешивания : Header stripping
Идентификатор кодека : A_AC3
Продолжительность : 1 ч. 37 м.
Вид битрейта : Постоянный
Битрейт : 448 Кбит/сек
Каналы : 6 каналов
Расположение каналов : Front: L C R, Side: L R, LFE
Частота : 48,0 КГц
Битовая глубина : 16 бит
Метод сжатия : С потерями
Размер потока : 313 Мбайт (7%)
Язык : Russian
Default : Да
Forced : Нет
Аудио #2
Идентификатор : 3
Формат : AC-3
Формат/Информация : Audio Coding 3
Расширение режима : CM (complete main)
Параметр Endianness формата : Big
Режим смешивания : Header stripping
Идентификатор кодека : A_AC3
Продолжительность : 1 ч. 37 м.
Вид битрейта : Постоянный
Битрейт : 448 Кбит/сек
Каналы : 6 каналов
Расположение каналов : Front: L C R, Side: L R, LFE
Частота : 48,0 КГц
Битовая глубина : 16 бит
Метод сжатия : С потерями
Размер потока : 313 Мбайт (7%)
Язык : English
Default : Нет
Forced : Нет
Текст
Идентификатор : 4
Формат : PGS
Режим смешивания : zlib
Идентификатор кодека : S_HDMV/PGS
Идентификатор кодека/Информация : The same subtitle format used on BDs/HD-DVDs
Язык : Russian
Default : Нет
Forced : Нет

_________________
[Торрент-статистика]
[Профиль]  [ЛС] 

ArtZak

Пол:

Стаж: 9 лет 5 месяцев

Сообщений: 2829

Репутация: 1366 [+] [-]

Откуда: Россия

Пост 17-Фев-2014 00:06 (спустя 1 час 1 минута)

[Цитировать] 

Смотрел фильм - спецэффектов много, а фильм фиговый (мягко-говоря), хотя на вкус и цвет...
[Торрент-статистика]
[Профиль]  [ЛС] 

awk05 ®

Пол:

Стаж: 8 лет 10 месяцев

Сообщений: 1334

Репутация: 278 [+] [-]

Откуда: Западная Украина Ривне

Пост 17-Фев-2014 00:58 (спустя 51 минута)

[Цитировать] 

кто играл в Mass Effect, увидят нападение жнецов на землю, превращение людей в хасков, сюжет слабоват

_________________
[Торрент-статистика]
[Профиль]  [ЛС] 

Lana123

Стаж: 7 лет 2 месяца

Сообщений: 2

Репутация: 0 [+] [-]

Пост 17-Фев-2014 01:03 (спустя 5 минут)

[Цитировать] 

Ну почему сюжет слабоват, имхо, очень даже реальный.
[Торрент-статистика]
[Профиль]  [ЛС] 
Показать сообщения:    
Ответить на тему

Текущее время: Сегодня 06:53

Часовой пояс: GMT + 4



Вы не можете начинать темы
Вы не можете отвечать на сообщения
Вы не можете редактировать свои сообщения
Вы не можете удалять свои сообщения
Вы не можете голосовать в опросах
Вы не можете прикреплять файлы к сообщениям
Вы не можете скачивать файлы