Выкуп / Ransom (Рон Ховард / Ron Howard) [1996, США, триллер, криминал, BDRip 720p] 4хMVO (Видеосервис, FDV, Киномания, ТК Россия) + DVO (ТНТ) + 3хAVO (Гаврилов, Живов, Визгунов) + Original Eng + Sub (Rus, Eng)

Ответить на тему
 
Автор
Сообщение

awk05 ®

Пол:

Стаж: 4 года 5 месяцев

Сообщений: 1352

Репутация: 275 [+] [-]

Откуда: Западная Украина Ривне

Пост 15-Фев-2014 18:51

[Цитировать] 

--Выкуп / Ransom«Кто-то должен заплатить.»-- Год выпуска: 1996
Страна: США
Студия: Touchstone Pictures, Imagine Entertainment
Жанр: триллер, криминал
Продолжительность: 2:01:27.946
Перевод 1: Профессиональный (многоголосый закадровый) [Видеосервис],[FDV],[Киномания],[ТК Россия] + Профессиональный (двухголосый закадровый) [ТНТ], + Авторский (одноголосый закадровый) [Андрей Гаврилов],[Юрий Живов],[Сергей Визгунов]
Cубтитры: русские, английские
Оригинальная аудиодорожка: английский--
Режиссер: Рон Ховард / Ron Howard--
В ролях: Мэл Гибсон (Tom Mullen), Рене Руссо (Kate Mullen), Гэри Синиз (Det. Jimmy Shaker), Делрой Линдо (Agent Lonnie Hawkins), Лили Тейлор (Maris Conner), Лив Шрайбер (Clark Barnes), Донни Уолберг (http://www.kinopoisk.ru/name/20367/), Эван Хэндлер (Miles Roberts), Броли Нолти (Sean Mullen), Нэнси Тикотин (Agent Kimba Welch)--
Описание: У преуспевающего владельца авиакомпании похищают сына и требуют выкуп в 2 миллиона долларов. Гибсон по настоянию жены сообщает о похищении в ФБР, и зритель видит детально выписанную работу специалистов в контакте с отцом.
Выясняется, что в прошлом у Гибсона было черное пятно - он дал в свое время взятку и избежал тюрьмы, куда попал другой человек. Фильм имеет довольно неожиданную развязку.--

Тип релиза: BDRip 720p
Контейнер: MKV
Видео кодек: AVC (High@L4.1)
Аудио кодек: AC3, DTS
Видео: 1280x694 (16:9), 23,976 кадра/сек, 6415 Кбит/сек, 0.29 Бит/(Пиксели*Кадры)
Аудио 01: DTS, 6 каналов Front: L C R, Side: L R, LFE, 48 kHz, ~1536 Кбит/сек, 24 бит [Russian] |Многоголосый закадровый, Видеосервис|
Аудио 02: DTS, 6 каналов Front: L C R, Side: L R, LFE, 48 kHz, ~1536 Кбит/сек, 24 бит [Russian] |Многоголосый закадровый, FDV|
Аудио 03: AC3, 6 каналов Front: L C R, Side: L R, LFE, 48 kHz, ~448 Кбит/сек, 16 бит [Russian] |Многоголосый закадровый, Киномания|
Аудио 04: AC3, 2 канала Front: L R, 48 kHz, ~192 Кбит/сек, 16 бит [Russian] |Многоголосый закадровый, ТК Россия|
Аудио 05: AC3, 2 канала Front: L R, 48 kHz, ~192 Кбит/сек, 16 бит [Russian] |Двухголосый закадровый, ТНТ|
Аудио 06: AC3, 2 канала Front: L R, 48 kHz, ~192 Кбит/сек, 16 бит [Russian] |Одноголосый закадровый, С.Визгунов|
Аудио 07: DTS, 6 каналов Front: L C R, Side: L R, LFE, 48 kHz, ~1536 Кбит/сек, 24 бит [Russian] |Одноголосый закадровый, А.Гаврилов|
Аудио 08: DTS, 6 каналов Front: L C R, Side: L R, LFE, 48 kHz, ~1536 Кбит/сек, 24 бит [Russian] |Одноголосый закадровый, Ю.Живов|
Аудио 09: DTS, 6 каналов Front: L C R, Side: L R, LFE, 48 kHz, ~1536 Кбит/сек, 24 бит [English]
Аудио 10: AC3, 2 канала Front: L R, 48 kHz, ~320 Кбит/сек, 16 бит [English] |Commentary|
Формат субтитров: softsub (SRT) Russian, English (SDH)-- --

Знаете ли вы, что...

* Производство картины было прервано на несколько дней, когда Мэлу Гибсону удаляли аппендицит.
* Музыка, написанная к фильму Говардом Шором, не понравилась режиссеру Рону Ховарду, и он в итоге заменил Шора композитором Джеймсом Хорнером.
* Сценарист Ричард Прайс сыграл роль детектива.
* Имя Джон Смит было предложено в качестве псевдонима. в 1995 году Мэл Гибсон озвучивал героя по имени Джон Смит в диснеевском мультфильме «Покахонтас».

MediaInfo

Код:
General
Unique ID : 186751389191860799611898967189104038874 (0x8C7F025EDDE449C6876475E2D05313DA)
Complete name : Ransom.1996.720p.BluRay.8xRus.2xEng.HDCLUB.mkv
Format : Matroska
Format version : Version 2
File size : 13.3 GiB
Duration : 2h 1mn
Overall bit rate : 15.6 Mbps
Encoded date : UTC 2012-08-09 07:09:56
Writing application : mkvmerge v3.4.0 ('Rapunzel') сборка от May 15 2010 09:38:20
Writing library : libebml v0.8.0 + libmatroska v0.9.0
Video
ID : 1
Format : AVC
Format/Info : Advanced Video Codec
Format profile : High@L4.1
Format settings, CABAC : Yes
Format settings, ReFrames : 9 frames
Codec ID : V_MPEG4/ISO/AVC
Duration : 2h 1mn
Bit rate : 6 415 Kbps
Width : 1 280 pixels
Height : 694 pixels
Display aspect ratio : 1.85:1
Frame rate : 23.976 fps
Color space : YUV
Chroma subsampling : 4:2:0
Bit depth : 8 bits
Scan type : Progressive
Bits/(Pixel*Frame) : 0.301
Stream size : 5.44 GiB (41%)
Writing library : x264 core 125 r2208kMod d9d2288
Encoding settings : cabac=1 / ref=9 / deblock=1:-3:-3 / analyse=0x3:0x133 / me=umh / subme=11 / psy=1 / fade_compensate=0.00 / psy_rd=1.10:0.00 / mixed_ref=1 / me_range=64 / chroma_me=1 / trellis=2 / 8x8dct=1 / cqm=0 / deadzone=21,11 / fast_pskip=0 / chroma_qp_offset=-2 / threads=6 / lookahead_threads=1 / sliced_threads=0 / nr=0 / decimate=0 / interlaced=0 / bluray_compat=0 / constrained_intra=0 / bframes=9 / b_pyramid=2 / b_adapt=2 / b_bias=0 / direct=3 / weightb=1 / open_gop=0 / weightp=2 / keyint=250 / keyint_min=23 / scenecut=40 / intra_refresh=0 / rc=crf / mbtree=0 / crf=17.0000 / qcomp=0.80 / qpmin=0 / qpmax=69 / qpstep=4 / ip_ratio=1.40 / pb_ratio=1.20 / aq=1:0.55
Language : English
Default : No
Forced : No
Audio #1
ID : 2
Format : DTS
Format/Info : Digital Theater Systems
Codec ID : A_DTS
Duration : 2h 1mn
Bit rate mode : Constant
Bit rate : 1 510 Kbps
Channel(s) : 6 channels
Channel positions : Front: L C R, Side: L R, LFE
Sampling rate : 48.0 KHz
Bit depth : 24 bits
Compression mode : Lossy
Stream size : 1.28 GiB (10%)
Title : DTS 5.1 @ 1536 kbps - Многоголосый закадровый, Видеосервис
Language : Russian
Default : Yes
Forced : No
Audio #2
ID : 3
Format : DTS
Format/Info : Digital Theater Systems
Codec ID : A_DTS
Duration : 2h 1mn
Bit rate mode : Constant
Bit rate : 1 510 Kbps
Channel(s) : 6 channels
Channel positions : Front: L C R, Side: L R, LFE
Sampling rate : 48.0 KHz
Bit depth : 24 bits
Compression mode : Lossy
Stream size : 1.28 GiB (10%)
Title : DTS 5.1 @ 1536 kbps - Многоголосый закадровый, FDV
Language : Russian
Default : No
Forced : No
Audio #3
ID : 4
Format : AC-3
Format/Info : Audio Coding 3
Mode extension : CM (complete main)
Format settings, Endianness : Big
Codec ID : A_AC3
Duration : 2h 1mn
Bit rate mode : Constant
Bit rate : 448 Kbps
Channel(s) : 6 channels
Channel positions : Front: L C R, Side: L R, LFE
Sampling rate : 48.0 KHz
Bit depth : 16 bits
Compression mode : Lossy
Stream size : 389 MiB (3%)
Title : AC3 5.1 @ 448 kbps - Многоголосый закадровый, Киномания
Language : Russian
Default : No
Forced : No
Audio #4
ID : 5
Format : AC-3
Format/Info : Audio Coding 3
Mode extension : CM (complete main)
Format settings, Endianness : Big
Codec ID : A_AC3
Duration : 2h 1mn
Bit rate mode : Constant
Bit rate : 192 Kbps
Channel(s) : 2 channels
Channel positions : Front: L R
Sampling rate : 48.0 KHz
Bit depth : 16 bits
Compression mode : Lossy
Stream size : 167 MiB (1%)
Title : AC3 2.0 @ 192 kbps - Двухголосый закадровый, ТНТ
Language : Russian
Default : No
Forced : No
Audio #5
ID : 6
Format : AC-3
Format/Info : Audio Coding 3
Mode extension : CM (complete main)
Format settings, Endianness : Big
Codec ID : A_AC3
Duration : 2h 1mn
Bit rate mode : Constant
Bit rate : 192 Kbps
Channel(s) : 2 channels
Channel positions : Front: L R
Sampling rate : 48.0 KHz
Bit depth : 16 bits
Compression mode : Lossy
Stream size : 167 MiB (1%)
Title : AC3 2.0 @ 192 kbps - Многоголосый закадровый, Россия
Language : Russian
Default : No
Forced : No
Audio #6
ID : 7
Format : AC-3
Format/Info : Audio Coding 3
Mode extension : CM (complete main)
Format settings, Endianness : Big
Codec ID : A_AC3
Duration : 2h 1mn
Bit rate mode : Constant
Bit rate : 192 Kbps
Channel(s) : 2 channels
Channel positions : Front: L R
Sampling rate : 48.0 KHz
Bit depth : 16 bits
Compression mode : Lossy
Stream size : 167 MiB (1%)
Title : AC3 2.0 @ 192 kbps - Одноголосый закадровый, С. Визгунов
Language : Russian
Default : No
Forced : No
Audio #7
ID : 8
Format : DTS
Format/Info : Digital Theater Systems
Codec ID : A_DTS
Duration : 2h 1mn
Bit rate mode : Constant
Bit rate : 1 510 Kbps
Channel(s) : 6 channels
Channel positions : Front: L C R, Side: L R, LFE
Sampling rate : 48.0 KHz
Bit depth : 24 bits
Compression mode : Lossy
Stream size : 1.28 GiB (10%)
Title : DTS 5.1 @ 1536 kbps - Одноголосый закадровый, А. Гаврилов
Language : Russian
Default : No
Forced : No
Audio #8
ID : 9
Format : DTS
Format/Info : Digital Theater Systems
Codec ID : A_DTS
Duration : 2h 1mn
Bit rate mode : Constant
Bit rate : 1 510 Kbps
Channel(s) : 6 channels
Channel positions : Front: L C R, Side: L R, LFE
Sampling rate : 48.0 KHz
Bit depth : 24 bits
Compression mode : Lossy
Stream size : 1.28 GiB (10%)
Title : DTS 5.1 @ 1536 kbps - Одноголосый закадровый, Ю. Живов
Language : Russian
Default : No
Forced : No
Audio #9
ID : 10
Format : DTS
Format/Info : Digital Theater Systems
Codec ID : A_DTS
Duration : 2h 1mn
Bit rate mode : Constant
Bit rate : 1 510 Kbps
Channel(s) : 6 channels
Channel positions : Front: L C R, Side: L R, LFE
Sampling rate : 48.0 KHz
Bit depth : 24 bits
Compression mode : Lossy
Delay relative to video : 11ms
Stream size : 1.28 GiB (10%)
Title : DTS 5.1 @ 1536 kbps
Language : English
Default : No
Forced : No
Audio #10
ID : 11
Format : AC-3
Format/Info : Audio Coding 3
Mode extension : CM (complete main)
Format settings, Endianness : Big
Codec ID : A_AC3
Duration : 2h 1mn
Bit rate mode : Constant
Bit rate : 320 Kbps
Channel(s) : 2 channels
Channel positions : Front: L R
Sampling rate : 48.0 KHz
Bit depth : 16 bits
Compression mode : Lossy
Stream size : 278 MiB (2%)
Title : Commentary
Language : English
Default : No
Forced : No
Text #1
ID : 12
Format : UTF-8
Codec ID : S_TEXT/UTF8
Codec ID/Info : UTF-8 Plain Text
Language : Russian
Default : No
Forced : No
Text #2
ID : 13
Format : UTF-8
Codec ID : S_TEXT/UTF8
Codec ID/Info : UTF-8 Plain Text
Language : English
Default : No
Forced : No
Menu
00:00:00.000 : :00:00:00.000
00:00:13.013 : :00:00:13.013
00:08:04.818 : :00:08:04.818
00:13:42.071 : :00:13:42.071
00:19:28.626 : :00:19:28.626
00:24:48.570 : :00:24:48.570
00:26:41.141 : :00:26:41.141
00:30:26.575 : :00:30:26.575
00:32:29.239 : :00:32:29.239
00:36:41.199 : :00:36:41.199
00:41:48.589 : :00:41:48.589
00:44:21.450 : :00:44:21.450
00:48:30.574 : :00:48:30.574
01:00:07.145 : :01:00:07.145
01:08:36.696 : :01:08:36.696
01:16:01.849 : :01:16:01.849
01:19:57.626 : :01:19:57.626
01:24:44.121 : :01:24:44.121
01:30:06.109 : :01:30:06.109
01:33:46.204 : :01:33:46.204
01:38:50.508 : :01:38:50.508
01:48:45.644 : :01:48:45.644
01:55:55.532 : :01:55:55.532

Скриншоты


_________________
[Торрент-статистика]
[Профиль]  [ЛС] 
Показать сообщения:    
Ответить на тему

Текущее время: Сегодня 15:33

Часовой пояс: GMT + 4



Вы не можете начинать темы
Вы не можете отвечать на сообщения
Вы не можете редактировать свои сообщения
Вы не можете удалять свои сообщения
Вы не можете голосовать в опросах
Вы не можете прикреплять файлы к сообщениям
Вы не можете скачивать файлы