Красная линия / Red Line (Роберт Кирбюсон / Robert Kirbyson) [2013, США, триллер, BDRip 720p] DVO (НТВ+)

Ответить на тему
 
Автор
Сообщение

awk05 ®

Пол:

Стаж: 8 лет 9 месяцев

Сообщений: 1334

Репутация: 278 [+] [-]

Откуда: Западная Украина Ривне

Пост 12-Фев-2014 16:49

[Цитировать] 

--Красная линия / Red Line-- Страна: США Yellow Line Studio
Жанр: триллер
Год выпуска: 2013
Продолжительность: 01:26:56
Перевод: Профессиональный (двухголосый закадровый) НТВ+
Cубтитры: English
Оригинальная аудиодорожка: есть--Режиссер: Роберт Кирбюсон / Robert Kirbyson--В ролях: Николь Гэйл Андерсон (Tori), Джон Биллингсли (Sam), Кунал Шарма (Al), Кевин Сайзмор (Jared), Джозеф Уильямсон (Mason), Марк Сауль (Boyd), Кина Фергюсон (Rubina), Рени Слай (Dillon), Ким Джексон (Kristine), Анна Маганини (Yolanda)--Описание: Терракт 11 сентября потряс весь мир, вошел в историю и послужил поводом к началу долгой и кровавой войны на Ближнем Востоке. Были у него и другие последствия: беспрецедентное нападение на Всемирный торговый центр положило начало новым терактам, ведь враги США увидели, что мировая держава, которая, казалось бы, контролирует весь мир, вполне уязвима. В США была введена новая ужесточенная система проверок, поэтому террористы обратили внимание на объекты, где ужесточение пропускного режима и проверка людей на возможность террористической угрозы были невозможны.
Новыми целями террористов стали станции и поезда метро – ежедневно их посещают тысячи, даже миллионы людей, и проверить всех – задача немыслимая. Однажды террорист устанавливает бомбу в одном из поездов лос-анджелесского метро, и когда происходит атака, в живых остается несколько пассажиров. Настоящий кошмар впереди: среди уцелевших – сам террорист, и одна из бомб все еще при нем...--Качество: BDRip 720p
Формат: MKV
Видео кодек: AVC (High@L4.1)
Аудио кодек: AC3, DTS
Видео: 1280x720 (16:9), 23,976 кадра/сек, 5508 Кбит/сек, 0.249 Бит/(Пиксели*Кадры)
Аудио 1: 6 каналов Front: L C R, Side: L R, LFE, 48,0 КГц, 384 Кбит/сек, 16 бит [RUS]
Аудио 2: 6 каналов Front: L C R, Side: L R, LFE, 48,0 КГц, 768 Кбит/сек, 24 бит [ENG]-- --

MediaInfo

Общее
Уникальный идентификатор : 211554140634183433309847799048527863821 (0x9F27D86E249937099306BDE867BEE00D)
Полное имя : G:\Films-new\Red.Line.2013.Blu.Ray.720p.CINEMANIA.mkv
Формат : Matroska
Версия формата : Version 4 / Version 2
Размер файла : 4,13 Гбайт
Продолжительность : 1 ч. 27 м.
Общий поток : 6796 Кбит/сек
Название фильма : Release Group CINEMANIA
Дата кодирования : UTC 2014-02-11 09:57:11
Программа кодирования : mkvmerge v6.7.0 ('Back to the Ground') 64bit built on Jan 8 2014 15:10:52
Библиотека кодирования : libebml v1.3.0 + libmatroska v1.4.1
Видео
Идентификатор : 1
Формат : AVC
Формат/Информация : Advanced Video Codec
Профиль формата : High@L4.1
Параметр CABAC формата : Да
Параметр ReFrames формата : 9 кадров
Идентификатор кодека : V_MPEG4/ISO/AVC
Продолжительность : 1 ч. 27 м.
Битрейт : 5508 Кбит/сек
Ширина : 1280 пикселей
Высота : 720 пикселей
Соотношение сторон : 16:9
Режим частоты кадров : Постоянный
Частота кадров : 23,976 кадра/сек
Цветовое пространство : YUV
Субдискретизация насыщенности : 4:2:0
Битовая глубина : 8 бит
Тип развёртки : Прогрессивная
Бит/(Пиксели*Кадры) : 0.249
Размер потока : 3,35 Гбайт (81%)
Заголовок : Release Group CINEMANIA
Язык : English
Default : Да
Forced : Нет
Аудио #1
Идентификатор : 2
Формат : AC-3
Формат/Информация : Audio Coding 3
Расширение режима : CM (complete main)
Параметр Endianness формата : Big
Идентификатор кодека : A_AC3
Продолжительность : 1 ч. 27 м.
Вид битрейта : Постоянный
Битрейт : 384 Кбит/сек
Каналы : 6 каналов
Расположение каналов : Front: L C R, Side: L R, LFE
Частота : 48,0 КГц
Битовая глубина : 16 бит
Метод сжатия : С потерями
Размер потока : 239 Мбайт (6%)
Заголовок : Нтв+
Язык : Russian
Default : Да
Forced : Да
Аудио #2
Идентификатор : 3
Формат : DTS
Формат/Информация : Digital Theater Systems
Режим : 16
Параметр Endianness формата : Big
Идентификатор кодека : A_DTS
Продолжительность : 1 ч. 27 м.
Вид битрейта : Постоянный
Битрейт : 768 Кбит/сек
Каналы : 6 каналов
Расположение каналов : Front: L C R, Side: L R, LFE
Частота : 48,0 КГц
Битовая глубина : 24 бит
Метод сжатия : С потерями
Размер потока : 478 Мбайт (11%)
Язык : English
Default : Нет
Forced : Нет
Текст
Идентификатор : 4
Формат : UTF-8
Идентификатор кодека : S_TEXT/UTF8
Идентификатор кодека/Информация : UTF-8 Plain Text
Язык : English
Default : Нет
Forced : Нет
Меню
00:00:00.000 : en:00:00:00.000
00:03:59.990 : en:00:03:59.990
00:12:59.028 : en:00:12:59.028
00:20:40.030 : en:00:20:40.030
00:28:52.981 : en:00:28:52.981
00:35:59.949 : en:00:35:59.949
00:44:13.943 : en:00:44:13.943
00:51:10.943 : en:00:51:10.943
01:00:01.973 : en:01:00:01.973
01:04:59.896 : en:01:04:59.896
01:14:29.924 : en:01:14:29.924
01:23:14.907 : en:01:23:14.907

_________________


Последний раз редактировалось: awk05 (2014-07-28 00:28), всего редактировалось 1 раз
[Торрент-статистика]
[Профиль]  [ЛС] 

arabella.kiev

Стаж: 7 лет 2 месяца

Сообщений: 24

Репутация: 43 [+] [-]

Пост 14-Фев-2014 15:29 (спустя 1 день 22 часа)

[Цитировать] 

ребята спасибо bi
[Торрент-статистика]
[Профиль]  [ЛС] 
Показать сообщения:    
Ответить на тему

Текущее время: Сегодня 12:17

Часовой пояс: GMT + 4



Вы не можете начинать темы
Вы не можете отвечать на сообщения
Вы не можете редактировать свои сообщения
Вы не можете удалять свои сообщения
Вы не можете голосовать в опросах
Вы не можете прикреплять файлы к сообщениям
Вы не можете скачивать файлы