Тор 2: Царство тьмы / Thor: The Dark World (Алан Тейлор / Alan Taylor, Джеймс Ганн / James Gunn) [2013 г., фэнтези, боевик, приключения, BDRip 720p] DUB + Original (ENG) + Sub

Ответить на тему
 
Автор
Сообщение

awk05 ®

Пол:

Стаж: 8 лет 9 месяцев

Сообщений: 1334

Репутация: 278 [+] [-]

Откуда: Западная Украина Ривне

Пост 11-Фев-2014 14:33

[Цитировать] 

--Тор 2: Царство тьмы / Thor: The Dark World-- Год выпуска: 2013
Страна: США / Marvel Entertainment, Marvel Studios Inc.
Жанр: фэнтези, боевик, приключения
Продолжительность: 01:52:04
Перевод: Профессиональный (полное дублирование) [iTunes]
Оригинальная аудиодорожка: английская
Субтитры: Русские (на речь эльфов), Английские--Режиссер: Алан Тейлор / Alan Taylor, Джеймс Ганн / James Gunn--В ролях: Крис Хемсворт(Thor), Натали Портман(Jane Foster), Том Хиддлстон(Loki), Энтони Хопкинс(Odin), Кристофер Экклстон(Malekith), Джейми Александер(Sif), Закари Левай(Fandral), Рэй Стивенсон( Volstagg), Таданобу Асано(Hogun), Идрис Эльба(Heimdall), Рене Руссо(Frigga)--Описание: Продолжение приключений одного из членов команды Мстителей, скандинавского бога Тора, которому на этот раз в одиночку предстоит защитить Землю и все девять миров от нашествия неизвестного врага.
Могучему Тору предстоит вновь сразиться за восстановление порядка в галактике, встретившись лицом к лицу с древней инопланетной расой, ведомой злодеем Малекитом, жаждущим установить в девяти мирах власть тьмы. Столкнувшись с врагом, более могущественным чем сам Один и всё воинство Асгарда, Тор должен собрать силы для решающей битвы. Его ждёт опасное путешествие и долгожданная встреча со своей земной возлюбленной Джейн Фостер. Сможет ли Тор рискнуть самым дорогим, чтобы не дать тьме воцариться на просторах вселенной?--Качество: BDRip 720p
Формат: MKV
Видео кодек: AVC (High@L4.1)
Аудио кодек: AC3
Видео: 1280x534 (2.40:1), 23,976 кадра/сек, 4236 Кбит/сек, 0.258 Бит/(Пиксели*Кадры)
Аудио 1: 6 каналов Front: L C R, Side: L R, LFE, 48,0 КГц, 384 Кбит/сек, 16 бит [RUS]
Аудио 2: 6 каналов Front: L C R, Side: L R, LFE, 48,0 КГц, 448 Кбит/сек, 16 бит [ENG]--

MI

Общее
Уникальный идентификатор : 214398486226135187435818841059843722601 (0xA14BA57EC2005EFE8A72F12048494D69)
Полное имя : G:\Films-new\Thor.The.Dark.World.2013.BD.720.Hot-Film.mkv
Формат : Matroska
Версия формата : Version 2
Размер файла : 3,97 Гбайт
Продолжительность : 1 ч. 52 м.
Общий поток : 5070 Кбит/сек
Дата кодирования : UTC 2014-02-10 20:39:35
Программа кодирования : mkvmerge v5.8.0 ('No Sleep / Pillow') built on Sep 2 2012 15:37:04
Библиотека кодирования : libebml v1.2.3 + libmatroska v1.3.0
Видео
Идентификатор : 1
Формат : AVC
Формат/Информация : Advanced Video Codec
Профиль формата : High@L4.1
Параметр CABAC формата : Да
Параметр ReFrames формата : 11 кадров
Идентификатор кодека : V_MPEG4/ISO/AVC
Продолжительность : 1 ч. 52 м.
Битрейт : 4236 Кбит/сек
Ширина : 1280 пикселей
Высота : 534 пикселя
Соотношение сторон : 2,40:1
Режим частоты кадров : Постоянный
Частота кадров : 23,976 кадра/сек
Цветовое пространство : YUV
Субдискретизация насыщенности : 4:2:0
Битовая глубина : 8 бит
Тип развёртки : Прогрессивная
Бит/(Пиксели*Кадры) : 0.258
Размер потока : 3,24 Гбайт (82%)
Библиотека кодирования : x264 core 138 r2358 9e941d1
Настройки программы : cabac=1 / ref=11 / deblock=1:-3:-3 / analyse=0x3:0x113 / me=umh / subme=11 / psy=1 / psy_rd=1.00:0.10 / mixed_ref=1 / me_range=32 / chroma_me=1 / trellis=2 / 8x8dct=1 / cqm=0 / deadzone=21,11 / fast_pskip=0 / chroma_qp_offset=-3 / threads=2 / lookahead_threads=1 / sliced_threads=0 / nr=0 / decimate=0 / interlaced=0 / bluray_compat=0 / constrained_intra=0 / bframes=8 / b_pyramid=2 / b_adapt=2 / b_bias=0 / direct=3 / weightb=1 / open_gop=0 / weightp=2 / keyint=240 / keyint_min=23 / scenecut=40 / intra_refresh=0 / rc_lookahead=40 / rc=2pass / mbtree=0 / bitrate=4236 / ratetol=1.0 / qcomp=0.60 / qpmin=0 / qpmax=69 / qpstep=4 / cplxblur=20.0 / qblur=0.5 / vbv_maxrate=50000 / vbv_bufsize=62500 / nal_hrd=none / ip_ratio=1.40 / pb_ratio=1.30 / aq=1:1.00
Язык : English
Default : Да
Forced : Нет
Аудио #1
Идентификатор : 2
Формат : AC-3
Формат/Информация : Audio Coding 3
Расширение режима : CM (complete main)
Параметр Endianness формата : Big
Идентификатор кодека : A_AC3
Продолжительность : 1 ч. 52 м.
Вид битрейта : Постоянный
Битрейт : 384 Кбит/сек
Каналы : 6 каналов
Расположение каналов : Front: L C R, Side: L R, LFE
Частота : 48,0 КГц
Битовая глубина : 16 бит
Метод сжатия : С потерями
Размер потока : 308 Мбайт (8%)
Язык : Russian
Default : Да
Forced : Нет
Аудио #2
Идентификатор : 3
Формат : AC-3
Формат/Информация : Audio Coding 3
Расширение режима : CM (complete main)
Параметр Endianness формата : Big
Идентификатор кодека : A_AC3
Продолжительность : 1 ч. 52 м.
Вид битрейта : Постоянный
Битрейт : 448 Кбит/сек
Каналы : 6 каналов
Расположение каналов : Front: L C R, Side: L R, LFE
Частота : 48,0 КГц
Битовая глубина : 16 бит
Метод сжатия : С потерями
Размер потока : 359 Мбайт (9%)
Язык : English
Default : Нет
Forced : Нет
Текст #1
Идентификатор : 4
Формат : UTF-8
Идентификатор кодека : S_TEXT/UTF8
Идентификатор кодека/Информация : UTF-8 Plain Text
Язык : Russian
Default : Да
Forced : Да
Текст #2
Идентификатор : 5
Формат : UTF-8
Идентификатор кодека : S_TEXT/UTF8
Идентификатор кодека/Информация : UTF-8 Plain Text
Язык : English
Default : Нет
Forced : Нет
Меню
00:00:00.000 : :Chapter 01
00:06:14.499 : :Chapter 02
00:13:06.369 : :Chapter 03
00:18:41.829 : :Chapter 04
00:24:57.663 : :Chapter 05
00:29:08.497 : :Chapter 06
00:41:34.200 : :Chapter 07
00:49:41.061 : :Chapter 08
00:55:56.979 : :Chapter 09
01:00:09.731 : :Chapter 10
01:08:13.506 : :Chapter 11
01:12:40.731 : :Chapter 12
01:21:35.307 : :Chapter 13
01:26:22.928 : :Chapter 14
01:33:59.634 : :Chapter 15
01:38:32.490 : :Chapter 16
01:41:50.354 : :Chapter 17

_________________
[Торрент-статистика]
[Профиль]  [ЛС] 
Показать сообщения:    
Ответить на тему

Текущее время: Сегодня 04:36

Часовой пояс: GMT + 4



Вы не можете начинать темы
Вы не можете отвечать на сообщения
Вы не можете редактировать свои сообщения
Вы не можете удалять свои сообщения
Вы не можете голосовать в опросах
Вы не можете прикреплять файлы к сообщениям
Вы не можете скачивать файлы