Мёбиус / Mobius (Эрик Рошан / Eric Rochant) [2013, Франция / Бельгия / Люксембург, триллер, драма, BDRip 720p] Dub + Sub Fre, Eng + Original Fre

Ответить на тему
 
Автор
Сообщение

awk05 ®

Пол:

Стаж: 4 года 5 месяцев

Сообщений: 1352

Репутация: 275 [+] [-]

Откуда: Западная Украина Ривне

Пост 10-Фев-2014 21:58

[Цитировать] 

--Мёбиус / Mobius«Можно играть в политику, играть с деньгами, с доверием, но только не с любовью»-- Страна: Франция / Бельгия / Люксембург
Жанр: триллер, драма
Год выпуска: 2013
Продолжительность: 01:48:13
Перевод: Профессиональный (дублированный)
Cубтитры: французские, английские
Оригинальная аудиодорожка: французский--Режиссер: Эрик Рошан / Eric Rochant--В ролях: Жан Дюжарден (Moïse), Сесиль Де Франс (Alice), Тим Рот (Ivan Rostovsky), Эмили Декьенн (Sandra), Алексей Горбунов (Khorzov), Владимир Меньшов (Cherkachin), Максим Виторган (Sobchak), Дмитрий Назаров (Inzirillo), Бранка Катич (Ava), Прасанна Пуванараджа (Saïd)--Описание: Жестокий и хладнокровный офицер с мрачным характером и проницательным умом, тайный агент ФСБ по кличке Моисей, ведет дело крупного российского олигарха, которого подозревают в фантастических финансовых махинациях. Кажется, он уже наступил на хвост змеи, но тут в его жизнь врывается страсть. Он, никогда в жизни не знавший нежных чувств, влюбляется в Алису, работающую трейдером в банковской структуре преступного олигарха. Что будет утром, когда окончится горячая любовная ночь?--Качество: BDRip 720p
Формат: MKV
Видео кодек: AVC (High@L4.1)
Аудио кодек: AC3
Видео: 1280 x 534 (2.35:1), 24,000 кадра/сек, 8712 Кбит/сек, 0.457 Бит/(Пиксели*Кадры)
Аудио 1: 6 каналов Front: L C R, Side: L R, LFE, 48,0 КГц, 384 Кбит/сек, 16 бит [RUS]
Аудио 2: 6 каналов Front: L C R, Side: L R, LFE, 48,0 КГц, 1509 Кбит/сек, 24 бит [FRE]-- --

MI

Код:
General
Complete name Мёбиус (2013. Mobius).mkv
Format : Matroska
File size : 7.10 GiB
Duration : 1h 48mn
Overall bit rate : 9 391 Kbps
Movie name : Release for RuTracker
Encoded date : UTC 2013-09-04 20:39:49
Writing application : mkvmerge v4.9.1 ('Ich will') сборка от Jul 11 2011 23:53:15
Writing library : libebml v1.2.1 + libmatroska v1.1.1
Video
ID : 1
Format : AVC
Format/Info : Advanced Video Codec
Format profile : High@L4.1
Format settings, CABAC : Yes
Format settings, ReFrames : 12 frames
Muxing mode : Container profile=Unknown@4.1
Codec ID : V_MPEG4/ISO/AVC
Duration : 1h 48mn
Bit rate : 7 500 Kbps
Width : 1 280 pixels
Height : 534 pixels
Display aspect ratio : 2.35:1
Frame rate : 24.000 fps
Color space : YUV
Chroma subsampling : 4:2:0
Bit depth : 8 bits
Scan type : Progressive
Bits/(Pixel*Frame) : 0.457
Stream size : 5.53 GiB (78%)
Title : Mobius.2013.720p.BluRay.x264.DTS-HDWinG
Writing library : x264 core 132 r2323+704+51 d571b1c tMod [8-bit@4:2:0 X86_64]
Encoding settings : cabac=1 / ref=12 / deblock=1:-3:-3 / analyse=0x3:0x113 / me=umh / subme=11 / psy=1 / fade_compensate=0.00 / psy_rd=1.05:0.00 / mixed_ref=1 / me_range=32 / chroma_me=1 / trellis=2 / 8x8dct=1 / cqm=0 / deadzone=21,11 / fast_pskip=0 / chroma_qp_offset=-2 / threads=36 / lookahead_threads=4 / sliced_threads=0 / nr=0 / decimate=0 / interlaced=0 / bluray_compat=0 / constrained_intra=0 / fgo=0 / bframes=8 / b_pyramid=2 / b_adapt=2 / b_bias=0 / direct=3 / weightb=1 / open_gop=0 / weightp=2 / keyint=240 / keyint_min=24 / scenecut=40 / intra_refresh=0 / rc_lookahead=240 / rc=2pass / mbtree=1 / bitrate=7500 / ratetol=1.0 / qcomp=0.70 / qpmin=0 / qpmax=69 / qpstep=4 / cplxblur=20.0 / qblur=0.5 / ip_ratio=1.20 / aq=4:0.85 / aq-sensitivity=10.00 / aq-factor=1.00:1.00:1.00 / aq2=0 / aq3=0
Language : French
Audio #1
ID : 2
Format : AC-3
Format/Info : Audio Coding 3
Mode extension : CM (complete main)
Codec ID : A_AC3
Duration : 1h 48mn
Bit rate mode : Constant
Bit rate : 384 Kbps
Channel(s) : 6 channels
Channel positions : Front: L C R, Side: L R, LFE
Sampling rate : 48.0 KHz
Bit depth : 16 bits
Stream size : 297 MiB (4%)
Title : Дубляж
Language : Russian
Audio #2
ID : 3
Format : DTS
Format/Info : Digital Theater Systems
Codec ID : A_DTS
Duration : 1h 48mn
Bit rate mode : Constant
Bit rate : 1 510 Kbps
Channel(s) : 6 channels
Channel positions : Front: L C R, Side: L R, LFE
Sampling rate : 48.0 KHz
Bit depth : 24 bits
Stream size : 1.14 GiB (16%)
Language : French
Text #1
ID : 4
Format : UTF-8
Codec ID : S_TEXT/UTF8
Codec ID/Info : UTF-8 Plain Text
Language : English
Text #2
ID : 5
Format : UTF-8
Codec ID : S_TEXT/UTF8
Codec ID/Info : UTF-8 Plain Text
Title : forced
Language : French
Menu
00:00:00.000 : en:00:00:00.000
00:07:23.083 : en:00:07:23.083
00:10:34.833 : en:00:10:34.833
00:13:58.667 : en:00:13:58.667
00:24:26.792 : en:00:24:26.792
00:39:36.167 : en:00:39:36.167
00:47:42.500 : en:00:47:42.500
00:55:48.417 : en:00:55:48.417
01:07:19.250 : en:01:07:19.250
01:21:07.708 : en:01:21:07.708
01:27:09.125 : en:01:27:09.125
01:43:42.792 : en:01:43:42.792

Скриншоты



_________________
[Торрент-статистика]
[Профиль]  [ЛС] 
Показать сообщения:    
Ответить на тему

Текущее время: Сегодня 14:45

Часовой пояс: GMT + 4



Вы не можете начинать темы
Вы не можете отвечать на сообщения
Вы не можете редактировать свои сообщения
Вы не можете удалять свои сообщения
Вы не можете голосовать в опросах
Вы не можете прикреплять файлы к сообщениям
Вы не можете скачивать файлы