Храброе сердце / Braveheart (Мэл Гибсон / Mel Gibson) [1995, боевик, драма, военный, биография, BDRip, 720p DVD9]

Ответить на тему
 
Автор
Сообщение

awk05 ®

Пол:

Стаж: 8 лет 9 месяцев

Сообщений: 1334

Репутация: 278 [+] [-]

Откуда: Западная Украина Ривне

Пост 10-Фев-2014 00:20

[Цитировать] 

--Храброе сердце / Braveheart«Все умирают, но не все живут по-настоящему»-- Год выпуска: 1995
Страна: США
Жанр: боевик, драма, военный, биография
Продолжительность: 02:57:57
Перевод: Профессиональный (двухголосый), Профессиональный (многоголосый, закадровый), Профессиональный (полное дублирование), Авторский (Гаврилов Андрей)
Субтитры: Russian, Russian (надписи), Russian (комментарии Мэла Гибсона), English, French, Polish, Portuguese, Romanian, Spanish, Swedish
Сценарий: Рэндолл Уоллес
Продюсер: Брюс Дэвей, Мэл Гибсон, Алан Лэдд мл.
Оператор: Джон Толл
Композитор: Джеймс Хорнер--
Режиссер: Мэл Гибсон--В ролях: Мэл Гибсон (William Wallace), Софи Марсо (Princess Isabelle), Патрик МакГуэн (Longshanks - King Edward I), Энгус МакФадьен (Robert the Bruce), Брендан Глисон (Hamish), Катрин МакКормак (Murron), Брайан Кокс (Argyle Wallace), Джерард МакСорли (Cheltham), Мартин Мерфи (Lord Talmadge), Томми Флэнаган (Morrison), Джон Мурта (Lochlan), Джеймс Робинсон (Young William Wallace), Шон Лоулор (Malcolm Wallace), Сэнди Нельсон (John Wallace), Джеймс Космо (Campbell)--Дублёры: Владимир Антоник, Олег Куценко, Олег Форостенко, Борис Токарев, Рудольф Панков--
Описание: 1280 год. Король Англии Эдуард I Длинноногий оккупировал значительную часть Шотландии и запретил шотландцам иметь оружие. В борьбе с отрядами короля погибают отец и брат десятилетнего Уильяма Уоллеса. Уоллеса на попечение берёт дядя — Аргайл.
Спустя несколько лет Уоллес возвращается в родную деревню, в надежде завести семью и вести хозяйство, по возможности избегая «проблем». Уоллес начинает встречаться с девушкой, с которой дружил с детства — Маррон. Чтобы избежать установленного королём Эдуардом I унизительного «права первой ночи», Маррон и Уоллес венчаются тайно. Уоллес отбивает Маррон у пытающихся её изнасиловать английских солдат. Однако Маррон не успевает убежать из деревни и местный шериф перерезает ей горло. Уоллес является с повинной, но вместо сдачи начинает бой с солдатами. Жители стихийно поднимают восстание, Уоллес перерезает горло шерифу на месте смерти Маррон. Шотландцы провозглашают его своим вождём.
Восстание разгорается, к отряду Уоллеса присоединяются и другие шотландские кланы. Уоллес одерживает несколько побед над английскими войсками, в том числе в битве при Стерлингском мосту. Однако во время Фолкеркской битвы шотландская знать предаёт Уоллеса и он терпит поражение. Уйдя в подполье, Уоллес убивает двух представителей знати, предавших его.
С Уоллесом встречается принцесса Изабелла, жена принца Эдуарда (будущего Эдуарда II), сына Эдуарда I.
Уоллес, всё же надеясь на поддержку со стороны шотландской знати, встречается с Робертом Брюсом (будущим королём Шотландии Робертом I). Но отец Роберта, втайне от сына, устроил засаду. Уоллес схвачен английскими солдатами.
В Лондоне Уоллеса судят за измену королю. Однако Уоллес говорит, что никогда не признавал и не признаёт Эдуарда своим королём. За это суд приговаривает его к «очищению через боль». На лондонской площади Уоллеса пытают. Уоллес, собрав последние силы, выкрикивает «Свобода!». Посмотрев на собравшуюся на площади толпу, Уоллес видит там Маррон и улыбается ей. В этот момент Уоллеса обезглавливают.
Некоторое время спустя Роберт Брюс с остатками шотландской армии встречается с английскими войсками на поле Баннокберна, чтобы получить согласие на коронацию. Однако взглянув на платок, который принадлежал Уоллесу, Брюс переосмыслил все. Выкрикивая имя Уоллеса, Брюс с шотландскими солдатами идут в атаку на англичан.--

Качество: BDRip
Формат: MKV
Видео кодек: AVC (High@L4.1)
Аудио кодек: AC3, DTS, A_VORBIS
Видео: 1280x544 (2.35:1), 23,976 кадра/сек, 5200 Кбит/сек, 0.311 Бит/(Пиксели*Кадры)
Аудио 01: 2 канала Front: L R, 48,0 КГц, 256 Кбит/сек, 16 бит [UA] MVO
Аудио 02: 2 канала Front: L R, 48,0 КГц, 320 Кбит/сек [RUS] DVO
Аудио 03: 6 каналов Front: L C R, Side: L R, LFE, 48,0 КГц, 384 Кбит/сек, 16 бит [RUS] MVO
Аудио 04: 6 каналов Front: L C R, Side: L R, LFE, 48,0 КГц, 448 Кбит/сек, 16 бит [RUS] DVO (Премьер Видео Фильм)
Аудио 05: 6 каналов Front: L C R, Side: L R, LFE, 48,0 КГц, 448 Кбит/сек, 16 бит [RUS] MVO
Аудио 06: 6 каналов Front: L C R, Side: L R, LFE, 48,0 КГц, 448 Кбит/сек, 16 бит [RUS] DVO (П.Гланц и И.Королева)
Аудио 07: 6 каналов Front: L C R, Side: L R, LFE, 48,0 КГц, 448 Кбит/сек, 16 бит [RUS] MVO (Киномания)
Аудио 08: 2 канала Front: L R, 48,0 КГц, 76 Кбит/сек, 16 бит[ENG] (Комментарии Мэла Гибсона)
Аудио 09: 6 каналов Front: L C R, Side: L R, LFE, 48,0 КГц, 755 Кбит/сек, 24 бит [RUS] AVO (Гаврилов)
Аудио 10: 6 каналов Front: L C R, Side: L R, LFE, 48,0 КГц, 768 Кбит/сек, 24 бит [RUS] DUB-- --

Знаете ли Вы, что...

Несколько главных сражений в фильме пришлось переснимать из-за того, что на статистах в кадре были замечены солнечные очки и наручные часы.
Король Эдуард I не был язычником, как это утверждается в фильме. Более того, он был участником Восьмого крестового похода.
Отец и брат реального Уильяма Уоллеса были убиты в 1291 году, то есть когда Уоллесу было около 21 года, а не 10, как это показано в фильме.
Реальный Уильям Уоллес не мог быть отцом Эдуарда III, как это предполагается в фильме. Между казнью Уоллеса (1305 год) и рождением Эдуарда III (1312 год) прошло 7 лет.
В изображении битвы при Стерлингском мосту отсутствует собственно Стерлингский мост, который сыграл важную роль в победе шотландцев.
Захват властями Уоллеса был спровоцирован не предательством отца Роберта Брюса, как это показано в фильме, а предательством лояльного английскому королю шотландского рыцаря Джона де Ментейса.
Синяя краска из вайды, которой накрашены лица Уоллеса и его соратников, применялась древними кельтскими воинами. В XIII веке, когда происходит действия фильма, она не использовалась.
Король Эдуард I умер не в одно время с Уоллесом, а через два года (в 1307 году).

Скриншоты

MediaInfo

Общее
Уникальный идентификатор : 182928688644597242654164095300772737512 (0x899EC8AEA4200667BFB2FE5CA996B1E8)
Полное имя : G:\Films\Гибсон\BraveHeart.mkv
Формат : Matroska
Версия формата : Version 2
Размер файла : 11,3 Гбайт
Продолжительность : 2 ч. 57 м.
Режим общего битрейта : Переменный
Общий поток : 9092 Кбит/сек
Название фильма : Braveheart (1995) - Release for HDClub
Дата кодирования : UTC 2010-03-31 05:31:28
Программа кодирования : mkvmerge v3.3.0 ('Language') built on Mar 24 2010 14:59:24
Библиотека кодирования : libebml v0.8.0 + libmatroska v0.9.0
Attachment : Yes / Yes / Yes
Видео
Идентификатор : 1
Формат : AVC
Формат/Информация : Advanced Video Codec
Профиль формата : High@L4.1
Параметр CABAC формата : Да
Параметр ReFrames формата : 10 кадров
Идентификатор кодека : V_MPEG4/ISO/AVC
Продолжительность : 2 ч. 57 м.
Битрейт : 5200 Кбит/сек
Ширина : 1280 пикселей
Высота : 544 пикселя
Соотношение сторон : 2,35:1
Режим частоты кадров : Постоянный
Частота кадров : 23,976 кадра/сек
Цветовое пространство : YUV
Субдискретизация насыщенности : 4:2:0
Битовая глубина : 8 бит
Тип развёртки : Прогрессивная
Бит/(Пиксели*Кадры) : 0.311
Размер потока : 6,23 Гбайт (55%)
Заголовок : Rip by Toshik®
Библиотека кодирования : x264 core 89 r1471kGIT 1144615
Настройки программы : cabac=1 / ref=10 / deblock=1:-2:-2 / analyse=0x3:0x133 / me=umh / subme=10 / psy=1 / psy_rd=1.00:0.00 / mixed_ref=1 / me_range=48 / chroma_me=1 / trellis=2 / 8x8dct=1 / cqm=1 / deadzone=21,11 / fast_pskip=0 / chroma_qp_offset=-2 / threads=6 / sliced_threads=0 / nr=0 / decimate=1 / interlaced=0 / constrained_intra=0 / bframes=12 / b_pyramid=2 / b_adapt=2 / b_bias=0 / direct=3 / wpredb=1 / wpredp=2 / keyint=250 / keyint_min=25 / scenecut=40 / intra_refresh=0 / rc_lookahead=0 / rc=2pass / mbtree=0 / bitrate=5200 / ratetol=1.0 / qcomp=0.60 / qpmin=10 / qpmax=51 / qpstep=4 / cplxblur=20.0 / qblur=0.5 / vbv_maxrate=40000 / vbv_bufsize=40000 / ip_ratio=1.40 / pb_ratio=1.30 / aq=1:1.00 / pulldown=0 / nal_hrd=none
Язык : English
Default : Нет
Forced : Нет
Аудио #1
Идентификатор : 2
Формат : AC-3
Формат/Информация : Audio Coding 3
Расширение режима : CM (complete main)
Параметр Endianness формата : Big
Идентификатор кодека : A_AC3
Продолжительность : 2 ч. 57 м.
Вид битрейта : Постоянный
Битрейт : 256 Кбит/сек
Каналы : 2 канала
Расположение каналов : Front: L R
Частота : 48,0 КГц
Битовая глубина : 16 бит
Метод сжатия : С потерями
Размер потока : 326 Мбайт (3%)
Заголовок : AC3 2.0 256 @ Многоголосый закадровый
Язык : Ukrainian
Default : Нет
Forced : Нет
Аудио #2
Идентификатор : 3
Формат : AC-3
Формат/Информация : Audio Coding 3
Расширение режима : CM (complete main)
Параметр Endianness формата : Big
Идентификатор кодека : A_AC3
Продолжительность : 2 ч. 57 м.
Вид битрейта : Постоянный
Битрейт : 320 Кбит/сек
Каналы : 2 канала
Расположение каналов : Front: L R
Частота : 48,0 КГц
Битовая глубина : 16 бит
Метод сжатия : С потерями
Размер потока : 407 Мбайт (4%)
Заголовок : AC3 2.0 320 @ Двухголосый закадровый - Премьер Видео Фильм
Язык : Russian
Default : Нет
Forced : Нет
Аудио #3
Идентификатор : 4
Формат : AC-3
Формат/Информация : Audio Coding 3
Расширение режима : CM (complete main)
Параметр Endianness формата : Big
Идентификатор кодека : A_AC3
Продолжительность : 2 ч. 57 м.
Вид битрейта : Постоянный
Битрейт : 384 Кбит/сек
Каналы : 6 каналов
Расположение каналов : Front: L C R, Side: L R, LFE
Частота : 48,0 КГц
Битовая глубина : 16 бит
Метод сжатия : С потерями
Размер потока : 489 Мбайт (4%)
Заголовок : AC3 5.1 384 @ Многоголосый закадровый
Язык : Russian
Default : Нет
Forced : Нет
Аудио #4
Идентификатор : 5
Формат : AC-3
Формат/Информация : Audio Coding 3
Расширение режима : CM (complete main)
Параметр Endianness формата : Big
Идентификатор кодека : A_AC3
Продолжительность : 2 ч. 57 м.
Вид битрейта : Постоянный
Битрейт : 448 Кбит/сек
Каналы : 6 каналов
Расположение каналов : Front: L C R, Side: L R, LFE
Частота : 48,0 КГц
Битовая глубина : 16 бит
Метод сжатия : С потерями
Размер потока : 570 Мбайт (5%)
Заголовок : AC3 5.1 448 @ Двухголосый закадровый - П.Гланц и И.Королева
Язык : Russian
Default : Нет
Forced : Нет
Аудио #5
Идентификатор : 6
Формат : AC-3
Формат/Информация : Audio Coding 3
Расширение режима : CM (complete main)
Параметр Endianness формата : Big
Идентификатор кодека : A_AC3
Продолжительность : 2 ч. 57 м.
Вид битрейта : Постоянный
Битрейт : 448 Кбит/сек
Каналы : 6 каналов
Расположение каналов : Front: L C R, Side: L R, LFE
Частота : 48,0 КГц
Битовая глубина : 16 бит
Метод сжатия : С потерями
Размер потока : 570 Мбайт (5%)
Заголовок : AC3 5.1 448 @ Многоголосый закадровый - Киномания
Язык : Russian
Default : Нет
Forced : Нет
Аудио #6
Идентификатор : 7
Формат : Vorbis
Параметр Floor формата : 1
Идентификатор кодека : A_VORBIS
Продолжительность : 2 ч. 57 м.
Вид битрейта : Переменный
Битрейт : 76,8 Кбит/сек
Каналы : 2 канала
Частота : 48,0 КГц
Метод сжатия : С потерями
Размер потока : 97,8 Мбайт (1%)
Заголовок : Vorbis 2.0 @ Commentary
Библиотека кодирования : libVorbis 1.0 (UTC 2002-07-17)
Язык : English
Default : Нет
Forced : Нет
Аудио #7
Идентификатор : 18
Формат : AC-3
Формат/Информация : Audio Coding 3
Расширение режима : CM (complete main)
Параметр Endianness формата : Big
Идентификатор кодека : A_AC3
Продолжительность : 2 ч. 57 м.
Вид битрейта : Постоянный
Битрейт : 448 Кбит/сек
Каналы : 6 каналов
Расположение каналов : Front: L C R, Side: L R, LFE
Частота : 48,0 КГц
Битовая глубина : 16 бит
Метод сжатия : С потерями
Размер потока : 570 Мбайт (5%)
Заголовок : AC3 5.1 448
Язык : English
Default : Нет
Forced : Нет
Аудио #8
Идентификатор : 19
Формат : DTS
Формат/Информация : Digital Theater Systems
Режим : 16
Параметр Endianness формата : Big
Идентификатор кодека : A_DTS
Продолжительность : 2 ч. 57 м.
Вид битрейта : Постоянный
Битрейт : 755 Кбит/сек
Каналы : 6 каналов
Расположение каналов : Front: L C R, Side: L R, LFE
Частота : 48,0 КГц
Битовая глубина : 24 бит
Метод сжатия : С потерями
Размер потока : 960 Мбайт (8%)
Заголовок : DTS 5.1 768 @ Одноголосый закадровый - А.Гаврилов
Язык : Russian
Default : Нет
Forced : Нет
Аудио #9
Идентификатор : 20
Формат : DTS
Формат/Информация : Digital Theater Systems
Режим : 16
Параметр Endianness формата : Big
Идентификатор кодека : A_DTS
Продолжительность : 2 ч. 57 м.
Вид битрейта : Постоянный
Битрейт : 768 Кбит/сек
Каналы : 6 каналов
Расположение каналов : Front: L C R, Side: L R, LFE
Частота : 48,0 КГц
Битовая глубина : 24 бит
Метод сжатия : С потерями
Задержка видео : 2 мс.
Размер потока : 978 Мбайт (8%)
Заголовок : DTS 5.1 768 @ Дубляж
Язык : Russian
Default : Да
Forced : Да
Текст #1
Идентификатор : 8
Формат : UTF-8
Идентификатор кодека : S_TEXT/UTF8
Идентификатор кодека/Информация : UTF-8 Plain Text
Заголовок : надписи и пр.
Язык : Russian
Default : Нет
Forced : Нет
Текст #2
Идентификатор : 9
Формат : UTF-8
Идентификатор кодека : S_TEXT/UTF8
Идентификатор кодека/Информация : UTF-8 Plain Text
Язык : Russian
Default : Нет
Forced : Нет
Текст #3
Идентификатор : 10
Формат : UTF-8
Идентификатор кодека : S_TEXT/UTF8
Идентификатор кодека/Информация : UTF-8 Plain Text
Заголовок : Комментарии Мела Гибсона
Язык : Russian
Default : Нет
Forced : Нет
Текст #4
Идентификатор : 11
Формат : ASS
Идентификатор кодека : S_TEXT/ASS
Идентификатор кодека/Информация : Advanced Sub Station Alpha
Метод сжатия : Без потерь
Язык : English
Default : Да
Forced : Нет
Текст #5
Идентификатор : 12
Формат : ASS
Идентификатор кодека : S_TEXT/ASS
Идентификатор кодека/Информация : Advanced Sub Station Alpha
Метод сжатия : Без потерь
Язык : French
Default : Нет
Forced : Нет
Текст #6
Идентификатор : 13
Формат : ASS
Идентификатор кодека : S_TEXT/ASS
Идентификатор кодека/Информация : Advanced Sub Station Alpha
Метод сжатия : Без потерь
Язык : Polish
Default : Нет
Forced : Нет
Текст #7
Идентификатор : 14
Формат : ASS
Идентификатор кодека : S_TEXT/ASS
Идентификатор кодека/Информация : Advanced Sub Station Alpha
Метод сжатия : Без потерь
Язык : Portuguese
Default : Нет
Forced : Нет
Текст #8
Идентификатор : 15
Формат : ASS
Идентификатор кодека : S_TEXT/ASS
Идентификатор кодека/Информация : Advanced Sub Station Alpha
Метод сжатия : Без потерь
Язык : Romanian
Default : Нет
Forced : Нет
Текст #9
Идентификатор : 16
Формат : ASS
Идентификатор кодека : S_TEXT/ASS
Идентификатор кодека/Информация : Advanced Sub Station Alpha
Метод сжатия : Без потерь
Язык : Spanish
Default : Нет
Forced : Нет
Текст #10
Идентификатор : 17
Формат : ASS
Идентификатор кодека : S_TEXT/ASS
Идентификатор кодека/Информация : Advanced Sub Station Alpha
Метод сжатия : Без потерь
Язык : Swedish
Default : Нет
Forced : Нет

_________________
[Торрент-статистика]
[Профиль]  [ЛС] 
Показать сообщения:    
Ответить на тему

Текущее время: Сегодня 05:02

Часовой пояс: GMT + 4



Вы не можете начинать темы
Вы не можете отвечать на сообщения
Вы не можете редактировать свои сообщения
Вы не можете удалять свои сообщения
Вы не можете голосовать в опросах
Вы не можете прикреплять файлы к сообщениям
Вы не можете скачивать файлы