Птичка на проводе / Bird on a Wire (Джон Бэдэм / John Badham) [1990 г., США, Комедийный боевик, HDTVRip 720p ] MVO + DVO + AVO(Гаврилов, Иванов) + Original + Subs(Rus, Eng)

Ответить на тему
 
Автор
Сообщение

awk05 ®

Пол:

Стаж: 8 лет 9 месяцев

Сообщений: 1334

Репутация: 278 [+] [-]

Откуда: Западная Украина Ривне

Пост 09-Фев-2014 23:51

[Цитировать] 

--Птичка на проводе / Bird on a Wire-- Страна: США
Год выпуска: 1990
Жанр: Комедийный боевик
Слоган: «He's every woman's dream and one woman's nightmare»
Продолжительность: 01:45:46
Перевод: Профессиональный (многоголосый, закадровый
Субтитры: Russian, English--
Режиссер: Джон Бэдэм / John Badham--
В ролях: Мэл Гибсон (Rick Jarmin), Голди Хоун (Marianne Graves), Дэвид Кэрредин (Eugene Sorenson), Билл Дьюк (Albert Diggs), Стивен Тоболовски (Joe Weyburn), Джоан Северанс (Rachel Varney), Гарри Цезар ( Marvin), Джефф Кори (Lou Baird), Алекс Брухански ( Raun)--
Описание: Вот уже 15 лет адвокат Мэрриен Грэйвс (Голди Хоун) никак не может забыть своего возлюбленного Рика Джармина (Мэл Гибсон), который вместе с другом отправился на сделку в Мексику и не вернулся. Его объявили погибшим, и вместо свадьбы Мэрриен плакала на импровизированных похоронах Рика.
И вдруг, на одной из станций автосервиса штата Висконсин она нечаянно натыкается на парня, очень похожего на её бывшего жениха. Но этот парень ведёт себя так, как будто он впервые видит Мэрриен! Что это, просто совпадение или этот парень действительно Рик Джармин?
Дела обстояли так: Рик со своим другом 15 лет назад, летя на частном самолёте, попал в переделку с наркоторговцами, которые были агентами ФБР — Соренсон и Диггс. Они-то и заставили молодых парней перевозить контрабандой наркотики на их самолёте из Мексики в США. Отказ сделать это стоил жизни другу Рика. Сам Рик Джармин оказался свидетелем по делу Соренсона и Диггса и был вынужден, опасаясь мести бывших агентов ФБР, скрываться 15 лет под чужими именами (по так называемой «программе защиты свидетелей»), работая в различных местах фермером, парикмахером и уборщиком зоопарка. Неудивительно, что Рик вынужден скрывать от Мэрриен своё настоящее имя.
Мэрриен поздно вечером подкрадывается к зданию автосервиса, чтобы раз и навсегда выяснить кто тот парень и неожиданно спасает его от верной смерти от рук мстителей. Спасаясь от преследования, парочка проезжает по всем бывшим местам работ Рика, чтобы найти убежище и определиться, что делать дальше. Неожиданно для себя оба выясняют, что по прежнему любят друг друга и хотят быть вместе.
Но этим планам мешают давние знакомые Рика, которые преследуют влюблённых по пятам и в конце концов настигают их в зоопарке, оборудованном по последнему слову техники. Именно там Рик и его невеста вступают в противоборство с преступниками и выходят победителями. Теперь они могут насладиться долгожданным покоем и создать семью.--

Качество: HDTVRip
Формат: MKV
Видео кодек: XviD
Аудио кодек: AC3
Видео: 1280x546 (2.35:1), 23,976 кадра/сек, 5858 Кбит/сек, 0.335 Бит/(Пиксели*Кадры)
Аудио №1: 2 канала Front: L R, 48,0 КГц, 192 Кбит/сек, 16 бит [RUS] MVO
Аудио №2: 2 канала Front: L R, 48,0 КГц, 192 Кбит/сек, 16 бит [RUS] DVO
Аудио №3: 2 канала Front: L R, 48,0 КГц, 192 Кбит/сек, 16 бит [RUS] AVO |Гаврилов Андрей|
Аудио №4: 2 канала Front: L R, 48,0 КГц, 192 Кбит/сек, 16 бит [RUS] AVO |Иванов Михаил|
Аудио №5: 2 канала Front: L R, 48,0 КГц, 384 Кбит/сек, 16 бит [ENG]--
--

Mediainfo

Format : Matroska
Format version : Version 2
File size : 5.28 GiB
Duration : 1h 45mn
Overall bit rate : 7 153 Kbps
Movie name : nmd
Encoded date : UTC 2012-01-30 13:21:10
Writing application : mkvmerge v5.2.1 ('A Far Off Place') built on Jan 2 2012 23:21:10
Writing library : libebml v1.2.3 + libmatroska v1.3.0
Video
ID : 1
Format : AVC
Format/Info : Advanced Video Codec
Format profile : High@L4.1
Format settings, CABAC : Yes
Format settings, ReFrames : 11 frames
Codec ID : V_MPEG4/ISO/AVC
Duration : 1h 45mn
Bit rate : 6 000 Kbps
Width : 1 280 pixels
Height : 546 pixels
Display aspect ratio : 2.35:1
Frame rate : 25.000 fps
Color space : YUV
Chroma subsampling : 4:2:0
Bit depth : 8 bits
Scan type : Progressive
Bits/(Pixel*Frame) : 0.343
Stream size : 4.33 GiB (82%)
Writing library : x264 core 119 r2106 07efeb4
Encoding settings : cabac=1 / ref=11 / deblock=1:-3:-3 / analyse=0x3:0x113 / me=umh / subme=11 / psy=1 / psy_rd=1.00:0.00 / mixed_ref=1 / me_range=48 / chroma_me=1 / trellis=2 / 8x8dct=1 / cqm=0 / deadzone=21,11 / fast_pskip=1 / chroma_qp_offset=-2 / threads=9 / sliced_threads=0 / nr=0 / decimate=1 / interlaced=0 / bluray_compat=0 / constrained_intra=0 / bframes=8 / b_pyramid=2 / b_adapt=2 / b_bias=0 / direct=1 / weightb=1 / open_gop=0 / weightp=2 / keyint=240 / keyint_min=25 / scenecut=40 / intra_refresh=0 / rc=2pass / mbtree=0 / bitrate=6000 / ratetol=1.0 / qcomp=0.60 / qpmin=0 / qpmax=69 / qpstep=4 / cplxblur=20.0 / qblur=0.5 / ip_ratio=1.40 / pb_ratio=1.30 / aq=1:1.00
Language : English
Default : Yes
Forced : No
Color primaries : BT.709-5, BT.1361, IEC 61966-2-4, SMPTE RP177
Transfer characteristics : BT.709-5, BT.1361
Matrix coefficients : BT.709-5, BT.1361, IEC 61966-2-4 709, SMPTE RP177
Audio #1
ID : 2
Format : AC-3
Format/Info : Audio Coding 3
Mode extension : CM (complete main)
Codec ID : A_AC3
Duration : 1h 45mn
Bit rate mode : Constant
Bit rate : 192 Kbps
Channel(s) : 2 channels
Channel positions : Front: L R
Sampling rate : 48.0 KHz
Bit depth : 16 bits
Compression mode : Lossy
Stream size : 145 MiB (3%)
Title : AC3 2.0 @ 192 kbps |MVO|
Language : Russian
Default : Yes
Forced : No
Audio #2
ID : 3
Format : AC-3
Format/Info : Audio Coding 3
Mode extension : CM (complete main)
Codec ID : A_AC3
Duration : 1h 45mn
Bit rate mode : Constant
Bit rate : 192 Kbps
Channel(s) : 2 channels
Channel positions : Front: L R
Sampling rate : 48.0 KHz
Bit depth : 16 bits
Compression mode : Lossy
Stream size : 145 MiB (3%)
Title : AC3 2.0 @ 192 kbps |DVO|
Language : Russian
Default : No
Forced : No
Audio #3
ID : 4
Format : AC-3
Format/Info : Audio Coding 3
Mode extension : CM (complete main)
Codec ID : A_AC3
Duration : 1h 45mn
Bit rate mode : Constant
Bit rate : 192 Kbps
Channel(s) : 2 channels
Channel positions : Front: L R
Sampling rate : 48.0 KHz
Bit depth : 16 bits
Compression mode : Lossy
Stream size : 145 MiB (3%)
Title : AC3 2.0 @ 192 kbps |AVO, Gavrilov|
Language : Russian
Default : No
Forced : No
Audio #4
ID : 5
Format : AC-3
Format/Info : Audio Coding 3
Mode extension : CM (complete main)
Codec ID : A_AC3
Duration : 1h 45mn
Bit rate mode : Constant
Bit rate : 192 Kbps
Channel(s) : 2 channels
Channel positions : Front: L R
Sampling rate : 48.0 KHz
Bit depth : 16 bits
Compression mode : Lossy
Stream size : 145 MiB (3%)
Title : AC3 2.0 @ 192 kbps |AVO, Ivanov|
Language : Russian
Default : No
Forced : No
Audio #5
ID : 6
Format : AC-3
Format/Info : Audio Coding 3
Format profile : Dolby Digital
Mode extension : CM (complete main)
Codec ID : A_AC3
Duration : 1h 45mn
Bit rate mode : Constant
Bit rate : 384 Kbps
Channel(s) : 2 channels
Channel positions : Front: L R
Sampling rate : 48.0 KHz
Bit depth : 16 bits
Compression mode : Lossy
Stream size : 291 MiB (5%)
Title : AC3 2.0 @ 384 kbps
Language : English
Default : No
Forced : No
Text #1
ID : 7
Format : UTF-8
Codec ID : S_TEXT/UTF8
Codec ID/Info : UTF-8 Plain Text
Language : Russian
Default : No
Forced : No
Text #2
ID : 8
Format : UTF-8
Codec ID : S_TEXT/UTF8
Codec ID/Info : UTF-8 Plain Text
Language : English
Default : No
Forced : No

_________________
[Торрент-статистика]
[Профиль]  [ЛС] 
Показать сообщения:    
Ответить на тему

Текущее время: Сегодня 10:59

Часовой пояс: GMT + 4



Вы не можете начинать темы
Вы не можете отвечать на сообщения
Вы не можете редактировать свои сообщения
Вы не можете удалять свои сообщения
Вы не можете голосовать в опросах
Вы не можете прикреплять файлы к сообщениям
Вы не можете скачивать файлы