Ученик чародея / The Sorcerer's Apprentice (Джон Тёртелтауб / Jon Turteltaub) [2010, США, фэнтези, приключения, BDRip 720p] Dub + Sub (rus, eng, ukr, sp, fr) + Original Eng

Ответить на тему
 
Автор
Сообщение

awk05 ®

Пол:

Стаж: 5 лет 2 месяца

Сообщений: 1352

Репутация: 275 [+] [-]

Откуда: Западная Украина Ривне

Пост 08-Фев-2014 03:25

[Цитировать] 

--Ученик чародея / The Sorcerer's Apprentice-- Страна: США
Жанр: фэнтези, приключения
Год выпуска: 2010
Продолжительность: 01:49:02
Перевод: Профессиональный (дублированный)
Cубтитры: русские, украинские, английские, французкие, испанские
Оригинальная аудиодорожка: английский--
Режиссер: Джон Тёртелтауб / Jon Turteltaub--
В ролях: Николас Кейдж (Balthazar), Джей Барушель (Dave Stutler), Альфред Молина (Horvath), Тереза Палмер (Becky Barnes), Тоби Кеббелл (Drake Stone), Омар Бенсон Миллер (Bennet), Моника Беллуччи (Veronica), Элис Крайдж (Morgana), Джэйк Черри (Young Dave), Джеймс А. Стефенс (Merlin).--
Описание: Манхэттен, наши дни. Мастер магии Бальтазар Блэйк пытается защитить Нью-Йорк от своего старого врага Максима Хорвата - злобного колдуна с самыми черными планами. Однако, Бальтазар чувствует, что не справится один и ему нужен помощник. На эту роль он выбирает самого обычного парня Дэйва, который вовсе не хочет спасать мир. Однако ему придется пройти ускоренный курс магии и вступить в битву.--
Тип релиза: BDRip 720p
Контейнер: MKV
Видео кодек: AVC (High@L4.1)
Аудио кодек: AC3, DTS
Видео: 1280x534 (2.40:1), 23,976 кадра/сек, 5091 Кбит/сек, 0.311 Бит/(Пиксели*Кадры)
Аудио 1: 6 каналов Front: L C R, Side: L R, LFE, 48,0 КГц, 640 Кбит/сек, 16 бит [RUS] |Дубляж, Blu-ray|
Аудио 2: 6 каналов Front: L C R, Side: L R, LFE, 48,0 КГц, 1536 Кбит/сек, 24 бит [ENG]--
--

Скриншоты

MediaInfo

Общее
Уникальный идентификатор : 214216736644563922948522623120701349333 (0xA128A48C86D8FEFCA89837F9F25F5DD5)
Полное имя : G:\Films\Николас Кейдж\The Sorcerer's Apprentice (720p).mkv
Формат : Matroska
Версия формата : Version 4 / Version 2
Размер файла : 5,52 Гбайт
Продолжительность : 1 ч. 49 м.
Общий поток : 7240 Кбит/сек
Название фильма : The Sorcerer's Apprentice (2010) - Release for HDCLUB
Дата кодирования : UTC 2013-03-19 06:54:06
Программа кодирования : mkvmerge v6.0.0 ('Coming Up For Air') built on Jan 20 2013 09:52:00
Библиотека кодирования : libebml v1.3.0 + libmatroska v1.4.0
Видео
Идентификатор : 1
Формат : AVC
Формат/Информация : Advanced Video Codec
Профиль формата : High@L4.1
Параметр CABAC формата : Да
Параметр ReFrames формата : 10 кадров
Идентификатор кодека : V_MPEG4/ISO/AVC
Продолжительность : 1 ч. 49 м.
Битрейт : 5091 Кбит/сек
Ширина : 1280 пикселей
Высота : 534 пикселя
Соотношение сторон : 2,40:1
Режим частоты кадров : Постоянный
Частота кадров : 23,976 кадра/сек
Цветовое пространство : YUV
Субдискретизация насыщенности : 4:2:0
Битовая глубина : 8 бит
Тип развёртки : Прогрессивная
Бит/(Пиксели*Кадры) : 0.311
Размер потока : 3,77 Гбайт (68%)
Заголовок : The Sorcerer's Apprentice (2010) - Release for HDCLUB
Библиотека кодирования : x264 core 107 r1772 c9dad9e
Настройки программы : cabac=1 / ref=11 / deblock=1:-3:-3 / analyse=0x3:0x113 / me=tesa / subme=10 / psy=1 / psy_rd=0.90:0.20 / mixed_ref=1 / me_range=32 / chroma_me=1 / trellis=2 / 8x8dct=1 / cqm=0 / deadzone=21,11 / fast_pskip=0 / chroma_qp_offset=-3 / threads=12 / sliced_threads=0 / nr=0 / decimate=1 / interlaced=0 / constrained_intra=0 / bframes=6 / b_pyramid=1 / b_adapt=2 / b_bias=0 / direct=3 / weightb=1 / open_gop=0 / weightp=2 / keyint=250 / keyint_min=23 / scenecut=40 / intra_refresh=0 / rc_lookahead=80 / rc=2pass / mbtree=1 / bitrate=5091 / ratetol=1.0 / qcomp=0.60 / qpmin=10 / qpmax=51 / qpstep=4 / cplxblur=20.0 / qblur=0.5 / ip_ratio=1.40 / aq=2:1.20
Язык : English
Default : Да
Forced : Нет
Аудио #1
Идентификатор : 2
Формат : AC-3
Формат/Информация : Audio Coding 3
Расширение режима : CM (complete main)
Параметр Endianness формата : Big
Идентификатор кодека : A_AC3
Продолжительность : 1 ч. 49 м.
Вид битрейта : Постоянный
Битрейт : 640 Кбит/сек
Каналы : 6 каналов
Расположение каналов : Front: L C R, Side: L R, LFE
Частота : 48,0 КГц
Битовая глубина : 16 бит
Метод сжатия : С потерями
Размер потока : 499 Мбайт (9%)
Заголовок : AC3 5.1ch 640 kbps - Дубляж
Язык : Russian
Default : Да
Forced : Нет
Аудио #2
Идентификатор : 3
Формат : DTS
Формат/Информация : Digital Theater Systems
Режим : 16
Параметр Endianness формата : Big
Идентификатор кодека : A_DTS
Продолжительность : 1 ч. 49 м.
Вид битрейта : Постоянный
Битрейт : 1509 Кбит/сек
Каналы : 6 каналов
Расположение каналов : Front: L C R, Side: L R, LFE
Частота : 48,0 КГц
Битовая глубина : 24 бит
Метод сжатия : С потерями
Размер потока : 1,15 Гбайт (21%)
Заголовок : DTS 5.1ch 1510 kbps
Язык : English
Default : Нет
Forced : Нет
Текст #1
Идентификатор : 4
Формат : ASS
Идентификатор кодека : S_TEXT/ASS
Идентификатор кодека/Информация : Advanced Sub Station Alpha
Метод сжатия : Без потерь
Язык : Russian
Default : Нет
Forced : Нет
Текст #2
Идентификатор : 5
Формат : ASS
Идентификатор кодека : S_TEXT/ASS
Идентификатор кодека/Информация : Advanced Sub Station Alpha
Метод сжатия : Без потерь
Заголовок : forced
Язык : Russian
Default : Да
Forced : Нет
Текст #3
Идентификатор : 6
Формат : UTF-8
Идентификатор кодека : S_TEXT/UTF8
Идентификатор кодека/Информация : UTF-8 Plain Text
Язык : Ukrainian
Default : Нет
Forced : Нет
Текст #4
Идентификатор : 7
Формат : UTF-8
Идентификатор кодека : S_TEXT/UTF8
Идентификатор кодека/Информация : UTF-8 Plain Text
Заголовок : forced
Язык : Ukrainian
Default : Нет
Forced : Нет
Текст #5
Идентификатор : 8
Формат : UTF-8
Идентификатор кодека : S_TEXT/UTF8
Идентификатор кодека/Информация : UTF-8 Plain Text
Язык : English
Default : Нет
Forced : Нет
Текст #6
Идентификатор : 9
Формат : UTF-8
Идентификатор кодека : S_TEXT/UTF8
Идентификатор кодека/Информация : UTF-8 Plain Text
Язык : French
Default : Нет
Forced : Нет
Текст #7
Идентификатор : 10
Формат : UTF-8
Идентификатор кодека : S_TEXT/UTF8
Идентификатор кодека/Информация : UTF-8 Plain Text
Язык : Spanish
Default : Нет
Forced : Нет
Меню
00:00:00.000 : en:The War Of The Sorcerers
00:04:11.168 : en:Field Trip To Areana Cabana
00:14:54.519 : en:Becky And Dave Reunite
00:20:58.716 : en:Horvath And Balthazar Return
00:25:27.985 : en:Balthazar Recruits Dave
00:31:09.326 : en:Chinatown
00:37:08.893 : en:"I'd Like To Learn More"
00:42:25.793 : en:Horvath Finds Drake
00:49:11.240 : en:Becky Stops By
00:53:41.301 : en:Bathroom Fight
00:57:56.139 : en:The Prime Merlinean
01:01:53.168 : en:A Mess In The Lab
01:07:04.270 : en:Dave Finds Becky Again
01:12:41.315 : en:Car Chase
01:17:24.849 : en:Veronica's Story
01:21:33.972 : en:Going After The Grimhold
01:25:44.806 : en:Dave Comes Clean With Becky
01:28:31.264 : en:The Rising
01:34:04.722 : en:Dave Joins The Fight
01:39:01.686 : en:Balthazar is Dead
01:42:38.819 : en:End Credits

_________________
[Торрент-статистика]
[Профиль]  [ЛС] 
Показать сообщения:    
Ответить на тему

Текущее время: Сегодня 09:58

Часовой пояс: GMT + 4



Вы не можете начинать темы
Вы не можете отвечать на сообщения
Вы не можете редактировать свои сообщения
Вы не можете удалять свои сообщения
Вы не можете голосовать в опросах
Вы не можете прикреплять файлы к сообщениям
Вы не можете скачивать файлы