Счастливый случай / It Could Happen to You (Эндрю Бергман / Andrew Bergman) [1994 г., комедия, мелодрама, драма, BDRip, 1080p] MVO+AVO+Original

Ответить на тему
 
Автор
Сообщение

awk05 ®

Пол:

Стаж: 4 года 5 месяцев

Сообщений: 1352

Репутация: 275 [+] [-]

Откуда: Западная Украина Ривне

Пост 08-Фев-2014 02:16

[Цитировать] 

--Счастливый случай / It Could Happen to You-- Год выпуска: 1994
Страна: США
Жанр: комедия, мелодрама, драма
Продолжительность: 01:41:31
Перевод: Профессиональный (многоголосый, закадровый) + одноголосый закадровый Пронин + Original (отдельно)
Русские субтитры: нет--
Режиссер: Эндрю Бергман / Andrew Bergman--
В ролях: Николас Кейдж (Charlie Lang), Бриджит Фонда (Yvonne Biasi), Рози Перес (Muriel Lang), Уенделл Пирс (Bo Williams), Айзек Хейз (Angel Dupree), Виктор Рохас (Jesu), Сеймур Кэссел (Jack Gross), Стэнли Туччи (Eddie Biasi), Дж.Э. Фримен (Sal Bontempo), Ред Баттонс (Walter Zakuto)--
Описание: Самая большая неудача в жизни полицейского Чарли Лэнга — это его жена, которая с утра до вечера может говорить и думать только о деньгах. У него самого их не хватает даже на чаевые очаровательной официантке. В кармане — только лотерейный билет, купленный по совету мудрой супруги.
Не задумываясь, Чарли обещает девушке половину своего выигрыша. И вот четыре миллиона долларов сваливаются ему на голову. Первую половину суммы уже успешно тратит его жена, окончательно поглупевшая от такого счастья. Теперь Чарли богат, но он не забыл, что еще должен заплатить чаевые… в два миллиона долларов--

Качество: BDRip
Формат: MKV
Видео кодек: AVC (High@L4.1)
Аудио кодек: AC3
Видео: 1920x1040(1,85:1), 23,976 кадра/сек, 10,4 Мбит/сек, 0.218 Бит/(Пиксели*Кадры)
Аудио 1: 2 канала Front: L R, 48,0 КГц, 448 Кбит/сек, 16 бит [RUS] MVO
Аудио 2: 2 канала Front: L R, 48,0 КГц, 256 Кбит/сек, 16 бит [RUS] AVO
Аудио 3: 6 каналов Front: L C R, Side: L R, LFE, 48,0 КГц, 640 Кбит/сек, 16 бит [ENG](отдельно)--
--

MediaInfo

Общее
Уникальный идентификатор : 216034293352637339075047737832354440372 (0xA286B10368370765B12515EDF10164B4)
Полное имя : G:\Films\Николас Кейдж\Счастливый случай\Счастливый случай.mkv
Формат : Matroska
Версия формата : Version 1
Размер файла : 7,73 Гбайт
Продолжительность : 1 ч. 41 м.
Общий поток : 10,9 Мбит/сек
Дата кодирования : UTC 2010-01-02 17:09:29
Программа кодирования : mkvmerge v2.1.0 ('Another Place To Fall') built on Aug 19 2007 13:40:07
Библиотека кодирования : libebml v0.7.7 + libmatroska v0.8.1
Видео
Идентификатор : 1
Формат : AVC
Формат/Информация : Advanced Video Codec
Профиль формата : High@L4.1
Параметр CABAC формата : Да
Параметр ReFrames формата : 4 кадра
Идентификатор кодека : V_MPEG4/ISO/AVC
Продолжительность : 1 ч. 41 м.
Битрейт : 10,4 Мбит/сек
Ширина : 1920 пикселей
Высота : 1040 пикселей
Соотношение сторон : 1,85:1
Режим частоты кадров : Постоянный
Частота кадров : 23,976 кадра/сек
Цветовое пространство : YUV
Субдискретизация насыщенности : 4:2:0
Битовая глубина : 8 бит
Тип развёртки : Прогрессивная
Бит/(Пиксели*Кадры) : 0.218
Размер потока : 7,07 Гбайт (92%)
Библиотека кодирования : x264 core 79 r1342kMod e8501ef
Настройки программы : cabac=1 / ref=4 / deblock=1:-3:-3 / analyse=0x3:0x133 / me=umh / subme=10 / psy=1 / psy_rd=1.0:0.1 / mixed_ref=1 / me_range=32 / chroma_me=1 / trellis=2 / 8x8dct=1 / cqm=0 / deadzone=21,11 / chroma_qp_offset=-3 / threads=6 / nr=0 / decimate=1 / mbaff=0 / constrained_intra=0 / bframes=7 / b_pyramid=0 / b_adapt=2 / b_bias=0 / direct=1 / wpredb=1 / wpredp=2 / keyint=250 / keyint_min=25 / scenecut=40 / rc_lookahead=50 / rc=abr / mbtree=1 / bitrate=10450 / ratetol=1.0 / qcomp=0.60 / qpmin=10 / qpmax=51 / qpstep=4 / ip_ratio=1.40 / aq=1:1.00
Default : Да
Forced : Нет
Аудио #1
Идентификатор : 2
Формат : AC-3
Формат/Информация : Audio Coding 3
Расширение режима : CM (complete main)
Параметр Endianness формата : Big
Идентификатор кодека : A_AC3
Продолжительность : 1 ч. 41 м.
Вид битрейта : Постоянный
Битрейт : 448 Кбит/сек
Каналы : 2 канала
Расположение каналов : Front: L R
Частота : 48,0 КГц
Битовая глубина : 16 бит
Метод сжатия : С потерями
Размер потока : 325 Мбайт (4%)
Default : Да
Forced : Нет
Аудио #2
Идентификатор : 3
Формат : AC-3
Формат/Информация : Audio Coding 3
Расширение режима : CM (complete main)
Параметр Endianness формата : Big
Идентификатор кодека : A_AC3
Продолжительность : 1 ч. 41 м.
Вид битрейта : Постоянный
Битрейт : 256 Кбит/сек
Каналы : 2 канала
Расположение каналов : Front: L R
Частота : 48,0 КГц
Битовая глубина : 16 бит
Метод сжатия : С потерями
Размер потока : 186 Мбайт (2%)
Default : Нет
Forced : Нет
Аудио #3
Формат : AC-3
Формат/Информация : Audio Coding 3
Расширение режима : CM (complete main)
Параметр Endianness формата : Big
Продолжительность : 1 ч. 41 м.
Вид битрейта : Постоянный
Битрейт : 640 Кбит/сек
Каналы : 6 каналов
Расположение каналов : Front: L C R, Side: L R, LFE
Частота : 48,0 КГц
Битовая глубина : 16 бит
Метод сжатия : С потерями
Размер потока : 465 Мбайт (100%)

Знаете ли вы, что...

Фильм основан на реальной истории, произошедшей в марте 1984 года в Нью-Йорке с официанткой Филлис Пензо и офицером полиции Робертом Каннингеймом.

Из книги «3500 кинорецензий»

Авторы этой картины, основываясь на реальной, хоть и кажущейся неправдоподобной истории нью-йоркского полицейского Чарли Лэнга, который выиграл в лотерее четыре миллиона долларов, попытались в начале 90-х годов воспроизвести некоторые из мотивов «народных американских комедий» Фрэнка Капры, очень популярных в 30—40-е годы. Повествование комментируется неким Ангелом, чернокожим бродягой, обращающимся прямо в камеру. К сожалению, создатели современной сказки о милосердии судьбы по отношению к людям добрым и благородным так и не рискнули показаться старомодными, зачем-то придумали мотивировки и сюжетные ходы, которые только лишают происходящее волшебности и сентиментальности. Хотя в последний момент они выбрали для фильма почти капровское название «Это может случиться с тобой» (ранее он имел длинный газетный заголовок — «Полицейский даёт официантке два миллиона долларов чаевых»), данная лента не принадлежит ни к фантазиям-мелодрамам, ни к социальным комедиям, а в финале вообще теряет верный тон и становится, увы, фальшивой.
Сергей Кудрявцев
1994

_________________
[Торрент-статистика]
[Профиль]  [ЛС] 
Показать сообщения:    
Ответить на тему

Текущее время: Сегодня 00:28

Часовой пояс: GMT + 4



Вы не можете начинать темы
Вы не можете отвечать на сообщения
Вы не можете редактировать свои сообщения
Вы не можете удалять свои сообщения
Вы не можете голосовать в опросах
Вы не можете прикреплять файлы к сообщениям
Вы не можете скачивать файлы