Синоптик / The Weather Man (Гор Вербински / Gore Verbinski) [2005 г., Драма, HDTVRip]

Ответить на тему
 
Автор
Сообщение

awk05 ®

Пол:

Стаж: 4 года 5 месяцев

Сообщений: 1352

Репутация: 275 [+] [-]

Откуда: Западная Украина Ривне

Пост 07-Фев-2014 21:59

[Цитировать] 

--Синоптик / The Weather Man-- Страна: США Германия
Жанр: драма, комедия
Год выпуска: 2005
Продолжительность: 01:37:33
Перевод: Профессиональный (многоголосый закадровый) 5 Канал
Cубтитры: нет--
Режиссер: Гор Вербински /Gore Verbinski--
В ролях: Николас Кейдж (David Spritz), Майкл Кейн (Robert Spritzel), Хоуп Дэвис (Noreen), Джеменн де ла Пенья (Shelly), Николас Холт (Mike), Майкл Рисполи (Russ), Джил Беллоуз (Don), Джудит МакКоннелл (Lauren), Крис Маррс (DMV Guy), Дина Фэклис (Andrea)--
Описание: Дэйв Спиртс — один из тех счастливчиков, которым принято завидовать. Популярный ведущий прогноза погоды, он получает приглашение работать в крупном нью-йоркском телешоу. Деньги, признание, отличные перспективы — удача явно на его стороне. Но мысль об этом почему-то больше не греет.
Пока «глашатай морозов и дождей» покорял профессиональные вершины, его личная жизнь полностью расстроилась. Из-за тяжелого развода, болезни отца и проблем с детьми Дэйв — на грани нервного срыва. И чем упорней он пытается контролировать ситуацию, тем больше понимает: жизнь так же непредсказуема, как и погода…--

Качество: HDTVRip
Формат: MKV
Видео кодек: AVC (High@L5.1)
Аудио кодек: AC3
Видео: 1280x696 (1,85:1), 25,000 кадра/сек, 5960 Кбит/сек, 0.268 Бит/(Пиксели*Кадры)
Аудио 1: 2 канала Front: L R, 48,0 КГц, 192 Кбит/сек, 16 бит [RUS]
Аудио 2: 6 каналов Front: L C R, Side: L R, LFE, 48,0 КГц, 384 Кбит/сек, 16 бит [ENG]--
--

MediaInfo

Общее
Уникальный идентификатор : 246441470486635606080937983409778433250 (0xB966E697DF9421C280DE1434A20D9CE2)
Полное имя : G:\Films\Николас Кейдж\Sinoptik.HDTVRip.720p.x264.MIF\Sinoptik.HDTVRip.720p.x264.MIF.mkv
Формат : Matroska
Версия формата : Version 1
Размер файла : 4,46 Гбайт
Продолжительность : 1 ч. 37 м.
Общий поток : 6538 Кбит/сек
Дата кодирования : UTC 2008-04-11 18:35:06
Программа кодирования : mkvmerge v2.2.0 ('Turn It On Again') built on Mar 4 2008 12:58:26
Библиотека кодирования : libebml v0.7.7 + libmatroska v0.8.1
Видео
Идентификатор : 1
Формат : AVC
Формат/Информация : Advanced Video Codec
Профиль формата : High@L5.1
Параметр CABAC формата : Да
Параметр ReFrames формата : 11 кадров
Идентификатор кодека : V_MPEG4/ISO/AVC
Продолжительность : 1 ч. 37 м.
Битрейт : 5960 Кбит/сек
Ширина : 1280 пикселей
Высота : 696 пикселей
Соотношение сторон : 1,85:1
Режим частоты кадров : Постоянный
Частота кадров : 25,000 кадров/сек
Цветовое пространство : YUV
Субдискретизация насыщенности : 4:2:0
Битовая глубина : 8 бит
Тип развёртки : Прогрессивная
Бит/(Пиксели*Кадры) : 0.268
Размер потока : 3,98 Гбайт (89%)
Библиотека кодирования : x264 core 57 svn-709C
Настройки программы : cabac=1 / ref=8 / deblock=1:0:0 / analyse=0x3:0x133 / me=hex / fpel_cmp=sad / subme=6 / me-prepass=0 / brdo=1 / mixed_ref=1 / me_range=16 / chroma_me=1 / trellis=1 / 8x8dct=1 / cqm=2 / deadzone=21,11 / chroma_qp_offset=0 / threads=3 / nr=0 / decimate=1 / mbaff=0 / bframes=3 / b_pyramid=1 / b_adapt=1 / b_bias=0 / direct=1 / wpredb=1 / bime=1 / keyint=250 / keyint_min=25 / scenecut=40(pre) / rc=2pass / bitrate=5960 / ratetol=1.0 / rceq='blurCplx^(1-qComp)' / qcomp=0.60 / qpmin=10 / qpmax=51 / qpstep=4 / cplxblur=20.0 / qblur=0.5 / ip_ratio=1.40 / pb_ratio=1.30
Язык : English
Default : Да
Forced : Нет
Аудио #1
Идентификатор : 2
Формат : AC-3
Формат/Информация : Audio Coding 3
Расширение режима : CM (complete main)
Параметр Endianness формата : Big
Идентификатор кодека : A_AC3
Продолжительность : 1 ч. 37 м.
Вид битрейта : Постоянный
Битрейт : 192 Кбит/сек
Каналы : 2 канала
Расположение каналов : Front: L R
Частота : 48,0 КГц
Битовая глубина : 16 бит
Метод сжатия : С потерями
Размер потока : 134 Мбайт (3%)
Заголовок : DD 2.0 by MIF
Язык : Russian
Default : Да
Forced : Нет
Аудио #2
Идентификатор : 3
Формат : AC-3
Формат/Информация : Audio Coding 3
Расширение режима : CM (complete main)
Параметр Endianness формата : Big
Идентификатор кодека : A_AC3
Продолжительность : 1 ч. 37 м.
Вид битрейта : Постоянный
Битрейт : 384 Кбит/сек
Каналы : 6 каналов
Расположение каналов : Front: L C R, Side: L R, LFE
Частота : 48,0 КГц
Битовая глубина : 16 бит
Метод сжатия : С потерями
Размер потока : 268 Мбайт (6%)
Заголовок : DD 5.1
Язык : English
Default : Нет
Forced : Нет

_________________
[Торрент-статистика]
[Профиль]  [ЛС] 
Показать сообщения:    
Ответить на тему

Текущее время: Сегодня 15:37

Часовой пояс: GMT + 4



Вы не можете начинать темы
Вы не можете отвечать на сообщения
Вы не можете редактировать свои сообщения
Вы не можете удалять свои сообщения
Вы не можете голосовать в опросах
Вы не можете прикреплять файлы к сообщениям
Вы не можете скачивать файлы