Придорожное заведение / Red Rock West (Джон Дал / John Dahl) [1993, США, триллер, драма, криминал, WEB-DL 720p] 2хMVO + AVO + Sub Rus, Eng + Original Eng

Ответить на тему
 
Автор
Сообщение

awk05 ®

Пол:

Стаж: 8 лет 10 месяцев

Сообщений: 1334

Репутация: 278 [+] [-]

Откуда: Западная Украина Ривне

Пост 07-Фев-2014 21:11

[Цитировать] 

--Придорожное заведение / Red Rock West-- Страна: США
Студия: PolyGram Filmed Entertainment, Propaganda Films, Red Rock Films
Жанр: триллер, драма, криминал
Год выпуска: 1993
Продолжительность: 01:38:07
Перевод 1: Профессиональный (многоголосый закадровый) ["Пифагор" 2005, DVD R5 "Universal Pictures Rus"]
Перевод 2: Профессиональный (многоголосый закадровый) ["Варус Видео"]
Перевод 3: Авторский (одноголосый закадровый) [Живов]
Cубтитры: русские, английские
Оригинальная аудиодорожка: английский--
Режиссер: Джон Дал / John Dahl--
В ролях: Николас Кейдж (Michael Williams), Деннис Хоппер (Lyle), Дж.Т. Уолш (Wayne Brown), Лара Флинн Бойл (Suzanne Brown), Тимоти Кархарт (Deputy Matt Greytack), Дэн Шор (Deputy Russ Bowman), Дуайт Йоакам (Truck Driver), Крэйг Рей (Jim), Вэнс Джонсон (Mr. Johnson), Роберт Эпел (Howard), Бобби Джо МакФедден (Old Man)--
Описание: Майкл — бывший морской пехотинец. В его карманах пусто, а единственный шанс найти работу — заехать в придорожный бар Red rock west. В это самое утро местный шериф Уэйн, на самом деле беглый преступник, укравший вместе с женой Сьюзан полмиллиона долларов и разыскиваемый ФБР, поджидает прибытия наемного убийцы из Техаса, нанятого для устранения жены.
Увидев Техасские номера машины Майкла, Уэйн решает, что дождался киллера и вручает Майклу $ 5000 аванса за предстоящую работу. Майкл устремляется к Сьюзан, чтобы предупредить ее и скрыться с наличными. Но к его удивлению Сьюзан удваивает сумму, чтобы он убил Уэйна. Майкл соглашается, но чувствует, что пора смываться. А тем временем к городку подъезжает настоящий наемный убийца Лайн…--

Тип релиза: WEB-DL 720p
Контейнер: MKV
Видео кодек: AVC (Main@L3.1)
Аудио кодек: AC3, A_AAC
Видео: 1280x718 (16:9), 23,976 кадра/сек, 4040 Кбит/сек, 0.29 Бит/(Пиксели*Кадры)
Аудио 1: 2 канала Front: L R, 48,0 КГц, 192 Кбит/сек, 16 бит [RUS] многоголосый "Пифагор"
Аудио 2: 2 канала Front: L R, 48,0 КГц, 192 Кбит/сек, 16 бит [RUS] многоголосый "Варус Видео"
Аудио 3: 2 канала Front: L R, 48,0 КГц, 192 Кбит/сек, 16 бит [RUS] одноголосый
Аудио 4: 2 канала Front: L R, 48,0 КГц, 192 Кбит/сек [ENG]
Формат субтитров: softsub (SRT)--
--

MediaInfo

Общее
Уникальный идентификатор : 179678646122082437463823305162969972030 (0x872CD936DC2AD75A80BF7C4D6B8DFD3E)
Полное имя : Придорожное заведение 1993.WEB-DL.720p.2хПМ.ЛО.Eng.mkv
Формат : Matroska
Версия формата : Version 4 / Version 2
Размер файла : 3,37 Гбайт
Продолжительность : 1 ч. 38 м.
Общий поток : 4916 Кбит/сек
Название фильма : Red Rock West (1993)
Дата кодирования : UTC 2013-03-30 05:38:51
Программа кодирования : mkvmerge v6.1.0 ('Old Devil') built on Mar 2 2013 14:32:37
Библиотека кодирования : libebml v1.3.0 + libmatroska v1.4.0
Видео
Идентификатор : 1
Формат : AVC
Формат/Информация : Advanced Video Codec
Профиль формата : High@L3.1
Параметр CABAC формата : Нет
Параметр ReFrames формата : 2 кадра
Идентификатор кодека : V_MPEG4/ISO/AVC
Продолжительность : 1 ч. 38 м.
Ширина : 1280 пикселей
Высота : 718 пикселей
Соотношение сторон : 16:9
Режим частоты кадров : Постоянный
Частота кадров : 23,976 кадра/сек
Цветовое пространство : YUV
Субдискретизация насыщенности : 4:2:0
Битовая глубина : 8 бит
Тип развёртки : Прогрессивная
Default : Да
Forced : Нет
Основные цвета : BT.709
Характеристики трансфера : BT.709
Коэффициенты матрицы : BT.709
Аудио #1
Идентификатор : 2
Формат : AC-3
Формат/Информация : Audio Coding 3
Расширение режима : CM (complete main)
Параметр Endianness формата : Big
Идентификатор кодека : A_AC3
Продолжительность : 1 ч. 38 м.
Вид битрейта : Постоянный
Битрейт : 192 Кбит/сек
Каналы : 2 канала
Расположение каналов : Front: L R
Частота : 48,0 КГц
Битовая глубина : 16 бит
Метод сжатия : С потерями
Размер потока : 135 Мбайт (4%)
Заголовок : AC3 2.0ch 192 kbps - многоголосый ("Пифагор" 2005, DVD R5 "Universal Pictures Rus")
Язык : Russian
Default : Да
Forced : Нет
Аудио #2
Идентификатор : 3
Формат : AC-3
Формат/Информация : Audio Coding 3
Расширение режима : CM (complete main)
Параметр Endianness формата : Big
Идентификатор кодека : A_AC3
Продолжительность : 1 ч. 38 м.
Вид битрейта : Постоянный
Битрейт : 192 Кбит/сек
Каналы : 2 канала
Расположение каналов : Front: L R
Частота : 48,0 КГц
Битовая глубина : 16 бит
Метод сжатия : С потерями
Размер потока : 135 Мбайт (4%)
Заголовок : AC3 2.0ch 192 kbps - многоголосый ("Варус Видео")
Язык : Russian
Default : Нет
Forced : Нет
Аудио #3
Идентификатор : 4
Формат : AC-3
Формат/Информация : Audio Coding 3
Расширение режима : CM (complete main)
Параметр Endianness формата : Big
Идентификатор кодека : A_AC3
Продолжительность : 1 ч. 38 м.
Вид битрейта : Постоянный
Битрейт : 192 Кбит/сек
Каналы : 2 канала
Расположение каналов : Front: L R
Частота : 48,0 КГц
Битовая глубина : 16 бит
Метод сжатия : С потерями
Размер потока : 135 Мбайт (4%)
Заголовок : AC3 2.0ch 192 kbps - одноголосый (Живов)
Язык : Russian
Default : Нет
Forced : Нет
Аудио #4
Идентификатор : 5
Формат : AAC
Формат/Информация : Advanced Audio Codec
Профиль формата : LC
Идентификатор кодека : A_AAC
Продолжительность : 1 ч. 38 м.
Каналы : 2 канала
Расположение каналов : Front: L R
Частота : 48,0 КГц
Метод сжатия : С потерями
Заголовок : A_AAC (LC) 2.0ch - original
Язык : English
Default : Нет
Forced : Нет
Текст #1
Идентификатор : 6
Формат : UTF-8
Идентификатор кодека : S_TEXT/UTF8
Идентификатор кодека/Информация : UTF-8 Plain Text
Язык : Russian
Default : Нет
Forced : Нет
Текст #2
Идентификатор : 7
Формат : UTF-8
Идентификатор кодека : S_TEXT/UTF8
Идентификатор кодека/Информация : UTF-8 Plain Text
Язык : English
Default : Нет
Forced : Нет
Меню
00:00:00.000 : en:Start
00:03:46.000 : en:A Formality
00:09:50.000 : en:Wayne
00:15:36.000 : en:Suzanne
00:19:05.000 : en:No Joke
00:20:09.000 : en:Kurt
00:22:25.000 : en:At The Hospital
00:24:46.000 : en:Sheriff Brown
00:25:58.000 : en:Escaping the Law
00:30:24.000 : en:Lyle From Dallas
00:34:47.000 : en:Red Rock Bar
00:38:10.000 : en:On The Beam
00:39:47.000 : en:Hitching A Ride
00:42:06.000 : en:Back At The Ranch
00:50:26.000 : en:One Drink
00:54:02.000 : en:A Better Idea
00:56:56.000 : en:"Tell Me About Mexico."
00:59:52.000 : en:Cashing Out
01:02:54.000 : en:Under Arrest
01:04:44.000 : en:Kevin & Ann McCord
01:08:17.000 : en:Creating A Diversion
01:09:56.000 : en:Jail Break
01:13:23.000 : en:"Nice Driving, Mike."
01:18:00.000 : en:Diggin' For Dollars
01:22:57.000 : en:"We Ain't Partners?"
01:26:28.000 : en:Hitman Hit
01:28:20.000 : en:Last Train Out
01:30:28.000 : en:"Go Get It."

_________________
[Торрент-статистика]
[Профиль]  [ЛС] 
Показать сообщения:    
Ответить на тему

Текущее время: Сегодня 03:14

Часовой пояс: GMT + 4



Вы не можете начинать темы
Вы не можете отвечать на сообщения
Вы не можете редактировать свои сообщения
Вы не можете удалять свои сообщения
Вы не можете голосовать в опросах
Вы не можете прикреплять файлы к сообщениям
Вы не можете скачивать файлы