Пипец / Kick-Ass (Мэттью Вон / Matthew Vaughn) [2010, США, Великобритания, Боевик, Триллер, Комедия, Криминал, BDRip 720p] Dub (нецензурный) + Dub (цензурный) Sub Rus + Original Eng

Ответить на тему
 
Автор
Сообщение

awk05 ®

Пол:

Стаж: 5 лет 2 месяца

Сообщений: 1352

Репутация: 275 [+] [-]

Откуда: Западная Украина Ривне

Пост 07-Фев-2014 16:03

[Цитировать] 

--Пипец / Kick-Ass-- Страна: США, Великобритания
Студия: Marv Films, Plan B Entertainment
Жанр: Боевик, Триллер, Комедия, Криминал
Год выпуска: 2010
Продолжительность: 01:57:44
Перевод 1: Профессиональный (дублированный нецензурный)
Перевод 2: Профессиональный (дублированный цензурный)
Cубтитры: русские, английские
Оригинальная аудиодорожка: английский--
Режиссер: Мэттью Вон / Matthew Vaughn--
В ролях: Аарон Тейлор-Джонсон (Dave Lizewski /Kick-Ass), Хлоя Грейс Морец (Mindy Macready /Hit-Girl), Николас Кейдж (Damon Macready /Big Daddy), Марк Стронг (Frank D'Amico), Кристофер Минц-Плассе (Chris D'Amico /Red Mist), Линдси Фонсека (Katie Deauxma), Омари Хардвик (Sergeant Marcus Williams), Кларк Дьюк (Marty), Эван Питерс (Todd), Майкл Рисполи (Big Joe), Ксандер Беркли (Detective Gigante), Элизабет МакГоверн (Mrs. Lizewski), Декстер Флетчер (Cody), Джейсон Флеминг (Lobby Goon), Янси Батлер (Angie D'Amico)--Описание: Главный герой — школьник Дэйв Лизевски, который, вырядившись в костюм супергероя, пытается бороться с преступниками, хотя не обладает для этого никакими способностями. Параллельно два персонажа — 11-летняя девочка, которая крошит гангстеров мечом и сынок гангстера, ведущий собственное расследование, пытаются выяснить личность Дэйва…--
Тип релиза: BDRip 720p
Контейнер: MKV
Видео кодек: AVC (High@L4.1)
Аудио кодек: DTS
Видео: 1280x534 (2.40:1), 23,976 кадра/сек, 5175 Кбит/сек, 0.316 Бит/(Пиксели*Кадры)
Аудио 1: 6 каналов Front: L C R, Side: L R, LFE, 48,0 КГц, 755 Кбит/сек, 24 бит [RUS] [Дубляж (нецензурный), R5]
Аудио 2: 6 каналов Front: L C R, Side: L R, LFE, 48,0 КГц, 755 Кбит/сек, 24 бит [RUS] [Дубляж (цензурный), R5]
Аудио 3: 6 каналов Front: L C R, Side: L R, LFE, 48,0 КГц, 1510 Кбит/сек, 24 бит [ENG]
Формат субтитров: softsub (SRT) - русские (полные 4 вида, SDH 2 вида), английские (полные, SDH) -- --

Скриншоты


MediaInfo

Format : Matroska
Format version : Version 2
File size : 6.74 GiB
Duration : 1h 57mn
Overall bit rate : 8 197 Kbps
Movie name : Пипец / Kick-Ass (2010) BDRip 720p
Encoded date : UTC 2011-08-05 16:20:53
Writing application : mkvmerge v4.9.1 ('Ich will') сборка от Jul 11 2011 23:53:15
Writing library : libebml v1.2.1 + libmatroska v1.1.1
Video
ID : 1
Format : AVC
Format/Info : Advanced Video Codec
Format profile : High@L4.1
Format settings, CABAC : Yes
Format settings, ReFrames : 8 frames
Codec ID : V_MPEG4/ISO/AVC
Duration : 1h 57mn
Bit rate : 5 175 Kbps
Width : 1 280 pixels
Height : 534 pixels
Display aspect ratio : 2.40:1
Frame rate : 23.976 fps
Color space : YUV
Chroma subsampling : 4:2:0
Bit depth : 8 bits
Scan type : Progressive
Bits/(Pixel*Frame) : 0.316
Stream size : 4.12 GiB (61%)
Title : CHD
Writing library : x264 core 102 r1666 d058f37
Encoding settings : cabac=1 / ref=8 / deblock=1:-3:-3 / analyse=0x3:0x113 / me=umh / subme=10 / psy=1 / psy_rd=1.05:0.00 / mixed_ref=1 / me_range=32 / chroma_me=1 / trellis=2 / 8x8dct=1 / cqm=2 / deadzone=21,11 / fast_pskip=0 / chroma_qp_offset=-1 / threads=12 / sliced_threads=0 / nr=0 / decimate=1 / interlaced=0 / constrained_intra=0 / bframes=4 / b_pyramid=2 / b_adapt=2 / b_bias=0 / direct=3 / weightb=1 / open_gop=0 / weightp=2 / keyint=250 / keyint_min=25 / scenecut=40 / intra_refresh=0 / rc_lookahead=50 / rc=2pass / mbtree=1 / bitrate=5175 / ratetol=1.0 / qcomp=0.60 / qpmin=10 / qpmax=51 / qpstep=4 / cplxblur=20.0 / qblur=0.5 / vbv_maxrate=50000 / vbv_bufsize=50000 / ip_ratio=1.40 / aq=1:1.00 / nal_hrd=none
Language : English
Audio #1
ID : 2
Format : DTS
Format/Info : Digital Theater Systems
Codec ID : A_DTS
Duration : 1h 57mn
Bit rate mode : Constant
Bit rate : 755 Kbps
Channel(s) : 6 channels
Channel positions : Front: L C R, Side: L R, LFE
Sampling rate : 48.0 KHz
Bit depth : 24 bits
Compression mode : Lossy
Stream size : 635 MiB (9%)
Title : DTS, 5.1 ch, 755 Kbps - DUB (Uncensored)
Language : Russian
Audio #2
ID : 3
Format : DTS
Format/Info : Digital Theater Systems
Codec ID : A_DTS
Duration : 1h 57mn
Bit rate mode : Constant
Bit rate : 755 Kbps
Channel(s) : 6 channels
Channel positions : Front: L C R, Side: L R, LFE
Sampling rate : 48.0 KHz
Bit depth : 24 bits
Compression mode : Lossy
Stream size : 635 MiB (9%)
Title : DTS, 5.1 ch, 755 Kbps - DUB (Censored)
Language : Russian
Audio #3
ID : 4
Format : DTS
Format/Info : Digital Theater Systems
Codec ID : A_DTS
Duration : 1h 57mn
Bit rate mode : Constant
Bit rate : 1 510 Kbps
Channel(s) : 6 channels
Channel positions : Front: L C R, Side: L R, LFE
Sampling rate : 48.0 KHz
Bit depth : 24 bits
Compression mode : Lossy
Stream size : 1.24 GiB (18%)
Title : DTS, 5.1 ch, 1510 Kbps - ENG
Language : English
Text #1
ID : 5
Format : UTF-8
Codec ID : S_TEXT/UTF8
Codec ID/Info : UTF-8 Plain Text
Title : R5
Language : Russian
Text #2
ID : 6
Format : UTF-8
Codec ID : S_TEXT/UTF8
Codec ID/Info : UTF-8 Plain Text
Title : R5 (resubed by stfuuu)
Language : Russian
Text #3
ID : 7
Format : UTF-8
Codec ID : S_TEXT/UTF8
Codec ID/Info : UTF-8 Plain Text
Title : voronine
Language : Russian
Text #4
ID : 8
Format : UTF-8
Codec ID : S_TEXT/UTF8
Codec ID/Info : UTF-8 Plain Text
Title : voronine (color)
Language : Russian
Text #5
ID : 9
Format : UTF-8
Codec ID : S_TEXT/UTF8
Codec ID/Info : UTF-8 Plain Text
Title : voronine (SDH)
Language : Russian
Text #6
ID : 10
Format : UTF-8
Codec ID : S_TEXT/UTF8
Codec ID/Info : UTF-8 Plain Text
Title : voronine (SDH color)
Language : Russian
Text #7
ID : 11
Format : UTF-8
Codec ID : S_TEXT/UTF8
Codec ID/Info : UTF-8 Plain Text
Title : ENG
Language : English
Text #8
ID : 12
Format : UTF-8
Codec ID : S_TEXT/UTF8
Codec ID/Info : UTF-8 Plain Text
Title : ENG (SDH)
Language : English
Menu
00:00:00.000 : en:A Regular Guy
00:05:33.333 : en:Be Honest
00:15:55.621 : en:Time to Engage
00:21:10.060 : en:Pop Quiz
00:28:17.696 : en:Here Kitty
00:47:52.953 : en:Daddy and Marcus
00:52:34.818 : en:Red Mist
01:03:16.835 : en:Watch This
01:10:16.879 : en:Worth Living For
01:16:25.122 : en:Need to Meet
01:25:17.279 : en:Hit Girl
01:30:26.046 : en:Job to Finish
01:38:17.350 : en:Under Control
01:43:57.982 : en:Playtime is Over
01:47:05.419 : en:Time to Go Home
01:49:47.122 : en:Opened a Door

Знаете ли вы, что...

На роль Папани пробовались Дэниэл Крейг и Марк Уолберг.
Фильм снят по мотивам одноименного комикса Марка Миллара и Джона Ромиты-младшего.
Николас Кейдж (Папаня) и Линдси Фонсека (Кэти) родились в один день, 7 января.
После того как Дэйв впервые видит Убивашку, нам показывают Папаню, стоящего перед билбордом, на котором изображена Клаудия Шиффер. Клаудия Шиффер - жена режиссера Мэттью Вона.
Камео Стэна Ли: человек, смотрящий новости.
Маркус читает комикс Дэймонда «Папани» МаКрэди, который на самом деле нарисован художником и соавтором комикса «Kick Ass» Джоном Ромитой мл.
Вон пригласил своих самых состоятельных знакомых на ужин и убеждал их скинуться по 10 млн. $ на проект, «который всех порвёт». Одним из людей, поддержавших Вона, стал Брэд Питт, с которым они подружились во время съёмок «Большого куша».

_________________
[Торрент-статистика]
[Профиль]  [ЛС] 
Показать сообщения:    
Ответить на тему

Текущее время: Сегодня 09:55

Часовой пояс: GMT + 4



Вы не можете начинать темы
Вы не можете отвечать на сообщения
Вы не можете редактировать свои сообщения
Вы не можете удалять свои сообщения
Вы не можете голосовать в опросах
Вы не можете прикреплять файлы к сообщениям
Вы не можете скачивать файлы