Последний рубеж / Homefront (Гэри Фледер / Gary Fleder) [2013 г., боевик, криминал, BDRip 720p] [Чистый звук] + Original (Eng)

Ответить на тему
 
Автор
Сообщение

TiZAr ®

Пол:

Стаж: 7 лет 7 месяцев

Сообщений: 815

Репутация: 1160 [+] [-]

Откуда: Россия

Пост 07-Фев-2014 02:19

[Цитировать] 

Последний рубеж / Homefront
«На что ты готов ради защиты своей семьи?»
- Год выпуска: 2013
Страна: США / Homefront Productions, Millennium Films, Nu-Image Films
Жанр: боевик, криминал
Продолжительность: 01:40:34
Перевод: Профессиональный (полное дублирование) [Чистый звук]
Субтитры: нет
Оригинальная аудиодорожка: английская
Навигация по главам: Есть
Режиссер: Гэри Фледер / Gary Fleder- -В ролях:
Джейсон Стэйтем, Джеймс Франко, Изабела Видович, Вайнона Райдер, Кейт Босворт, Клэнси Браун, Рашель Лефевр, Омар Бенсон Миллер, Маркус Хестер,
Фрэнк Грилло и др.
Описание:
Фил Брокер — бывший агент из отдела борьбы с наркотиками. Фил переезжает в небольшой город вместе с семьей в надежде забыть прошлое. Но он узнает, что город только со стороны кажется тихим и спокойным местом, на самом деле он кишит насилием, наркотиками, а всем этим заправляет злодей по кличке Аллигатор…
Качество: BDRip 720p | Сэмпл
Формат: MKV
Видео: AVC, 1280x536 (2.35:1), 23.976 fps, 4 707 Kbps (0.286 bit/pixel)
Аудио #1: DTS, 48.0 KHz, 6 ch, 1 510 Kbps, CBR (English)
Аудио #2: AC-3, 48.0 KHz, 2 ch, 192 Kbps, CBR (Russian)

MI

Код:
General
Unique ID                                : 221118979095957140322410025516540952676 (0xA659F7602DCDF2ED89A75362EE8D0064)
Complete name                            : E:\downloads\Homefront.2013.720p.BluRay.x264.mkv
Format                                   : Matroska
Format version                           : Version 2
File size                                : 4.50 GiB
Duration                                 : 1h 40mn
Overall bit rate                         : 6 405 Kbps
Encoded date                             : UTC 2014-02-25 05:56:28
Writing application                      : mkvmerge v6.7.0 ('Back to the Ground') 64bit built on Jan  8 2014 15:10:52
Writing library                          : libebml v1.3.0 + libmatroska v1.4.1
Video
ID                                       : 1
Format                                   : AVC
Format/Info                              : Advanced Video Codec
Format profile                           : High@L4.1
Format settings, CABAC                   : Yes
Format settings, ReFrames                : 5 frames
Codec ID                                 : V_MPEG4/ISO/AVC
Duration                                 : 1h 40mn
Bit rate                                 : 4 707 Kbps
Width                                    : 1 280 pixels
Height                                   : 536 pixels
Display aspect ratio                     : 2.40:1
Frame rate mode                          : Constant
Frame rate                               : 23.976 fps
Color space                              : YUV
Chroma subsampling                       : 4:2:0
Bit depth                                : 8 bits
Scan type                                : Progressive
Bits/(Pixel*Frame)                       : 0.286
Stream size                              : 3.22 GiB (71%)
Title                                    : X264
Writing library                          : x264 core 140 r2377 1ca7bb9
Encoding settings                        : cabac=1 / ref=5 / deblock=1:0:0 / analyse=0x3:0x133 / me=umh / subme=7 / psy=1 / psy_rd=1.00:0.00 / mixed_ref=1 / me_range=16 / chroma_me=1 / trellis=1 / 8x8dct=1 / cqm=0 / deadzone=21,11 / fast_pskip=0 / chroma_qp_offset=-2 / threads=18 / lookahead_threads=3 / sliced_threads=0 / nr=0 / decimate=1 / interlaced=0 / bluray_compat=0 / constrained_intra=0 / bframes=3 / b_pyramid=2 / b_adapt=1 / b_bias=0 / direct=1 / weightb=1 / open_gop=0 / weightp=2 / keyint=250 / keyint_min=23 / scenecut=40 / intra_refresh=0 / rc_lookahead=40 / rc=2pass / mbtree=1 / bitrate=4707 / ratetol=1.0 / qcomp=0.60 / qpmin=0 / qpmax=69 / qpstep=4 / cplxblur=20.0 / qblur=0.5 / ip_ratio=1.40 / aq=1:1.00
Language                                 : English
Default                                  : Yes
Forced                                   : No
Audio #1
ID                                       : 2
Format                                   : DTS
Format/Info                              : Digital Theater Systems
Mode                                     : 16
Format settings, Endianness              : Big
Codec ID                                 : A_DTS
Duration                                 : 1h 40mn
Bit rate mode                            : Constant
Bit rate                                 : 1 509 Kbps
Channel count                            : 6 channels
Channel positions                        : Front: L C R, Side: L R, LFE
Sampling rate                            : 48.0 KHz
Bit depth                                : 24 bits
Compression mode                         : Lossy
Stream size                              : 1.06 GiB (24%)
Title                                    : DTS
Language                                 : English
Default                                  : No
Forced                                   : No
Audio #2
ID                                       : 3
Format                                   : AC-3
Format/Info                              : Audio Coding 3
Mode extension                           : CM (complete main)
Format settings, Endianness              : Big
Codec ID                                 : A_AC3
Duration                                 : 1h 40mn
Bit rate mode                            : Constant
Bit rate                                 : 192 Kbps
Channel count                            : 2 channels
Channel positions                        : Front: L R
Sampling rate                            : 48.0 KHz
Bit depth                                : 16 bits
Compression mode                         : Lossy
Stream size                              : 138 MiB (3%)
Language                                 : Russian
Default                                  : Yes
Forced                                   : No
Menu
00:00:00.000                             : en:00:00:00.000
00:04:55.462                             : en:00:04:55.462
00:09:14.095                             : en:00:09:14.095
00:14:55.853                             : en:00:14:55.853
00:21:42.426                             : en:00:21:42.426
00:25:03.001                             : en:00:25:03.001
00:31:23.215                             : en:00:31:23.215
00:34:04.000                             : en:00:34:04.000
00:39:01.089                             : en:00:39:01.089
00:45:47.995                             : en:00:45:47.995
00:49:29.258                             : en:00:49:29.258
00:55:16.480                             : en:00:55:16.480
01:01:55.420                             : en:01:01:55.420
01:08:56.174                             : en:01:08:56.174
01:12:27.635                             : en:01:12:27.635
01:16:00.973                             : en:01:16:00.973
01:19:15.250                             : en:01:19:15.250
01:24:02.621                             : en:01:24:02.621
01:29:39.124                             : en:01:29:39.124
01:35:16.961                             : en:01:35:16.961

Скриншоты


_________________
Не стоит обращать внимания на отсутствие сидов на моих раздачах. Все мои релизы мультитрекерные - нет сидов, включите DHT.
За релизами в HD качестве обращайтесь в личку, либо отписывайтесь в теме.
[Торрент-статистика]
[Профиль]  [ЛС] 

TiZAr ®

Пол:

Стаж: 7 лет 7 месяцев

Сообщений: 815

Репутация: 1160 [+] [-]

Откуда: Россия

Пост 26-Фев-2014 05:56 (спустя 19 дней)

[Цитировать] 

Перезалит на BDRip 720p

_________________
Не стоит обращать внимания на отсутствие сидов на моих раздачах. Все мои релизы мультитрекерные - нет сидов, включите DHT.
За релизами в HD качестве обращайтесь в личку, либо отписывайтесь в теме.
[Торрент-статистика]
[Профиль]  [ЛС] 
Показать сообщения:    
Ответить на тему

Текущее время: Сегодня 05:48

Часовой пояс: GMT + 4



Вы не можете начинать темы
Вы не можете отвечать на сообщения
Вы не можете редактировать свои сообщения
Вы не можете удалять свои сообщения
Вы не можете голосовать в опросах
Вы не можете прикреплять файлы к сообщениям
Вы не можете скачивать файлы