Голодный кролик атакует / Seeking Justice (Роджер Дональдсон / Roger Donaldson) [2011 г. США. боевик, триллер, драма. BDRip 720p]

Ответить на тему
 
Автор
Сообщение

awk05 ®

Пол:

Стаж: 8 лет 9 месяцев

Сообщений: 1334

Репутация: 278 [+] [-]

Откуда: Западная Украина Ривне

Пост 06-Фев-2014 18:20

[Цитировать] 

--Голодный кролик атакует / Seeking Justice
«На что ты готов пойти ради мести?»--
Страна: США
Жанр: боевик, триллер, драма
Год выпуска: 2011
Продолжительность: 01:45:01
Перевод: Профессиональный (полное дублирование)
Формат субтитров: English srt
Оригинальная аудиодорожка: Английская--
Режиссёр: Роджер Дональдсон / Roger Donaldson--
В ролях: Николас Кейдж (Will Gerard), Дженьюэри Джонс (Laura Gerard), Гай Пирс (Simon), Дженнифер Карпентер, Хэролд Перрино (Jimmy), Ксандер Беркли (Lieutenant Durgan), Айрон Э. Синглтон (Scar), Майк Пневски (Gibbs), Моника Акоста (Audubon Zoo Visitor), Джо Крест (Detective Rudeski), Дж.Д. Эвермор (Man on Elevator), Дэвид Дженсен (Gas Attendant)--
Описание: Фильм сфокусируется на человеке, супруга которого становится жертвой жестокого преступления, и он внедряется в тайную организацию мстителей...--
Качество: BDRip
Формат: MKV
Видео кодек: AVC (High@L4.1)
Аудио кодек: DTS
Видео: 1280x546 (2.35:1), 23,976 кадра/сек, 7109 Кбит/сек, 0.29 Бит/(Пиксели*Кадры)
Аудио 1: 6 каналов Front: L C R, Side: L R, LFE, 48,0 КГц, DTS Кбит/сек, 16 бит [RUS]
Аудио 2: 6 каналов Front: L C R, Side: L R, LFE, 48,0 КГц, DTS Кбит/сек, 16 бит [ENG]-- --

MediaInfo

Код:
Полное имя : Seeking.Justice.2011.Blu-ray.720p.x264-EbP.Rus.Eng.mkv
Формат : Matroska
Версия формата : Version 2
Размер файла : 7,55 Гбайт
Продолжительность : 1 ч. 45 м.
Общий поток : 10,3 Мбит/сек
Название фильма : HANSMER
Дата кодирования : UTC 2012-02-14 05:39:54
Программа кодирования : mkvmerge v5.3.0 ('I could have danced') built on Feb 9 2012 10:38:07
Библиотека кодирования : libebml v1.2.3 + libmatroska v1.3.0
Видео
Идентификатор : 1
Формат : AVC
Формат/Информация : Advanced Video Codec
Профиль формата : High@L4.1
Параметр CABAC формата : Да
Параметр ReFrames формата : 11 кадров
Идентификатор кодека : V_MPEG4/ISO/AVC
Продолжительность : 1 ч. 45 м.
Битрейт : 7062 Кбит/сек
Ширина : 1280 пикселей
Высота : 546 пикселей
Соотношение сторон : 2,35:1
Частота кадров : 24,000 кадра/сек
Цветовое пространство : YUV
Субдискретизация насыщенности : 4:2:0
Битовая глубина : 8 бит
Тип развёртки : Прогрессивная
Бит/(Пиксели*Кадры) : 0.421
Размер потока : 5,18 Гбайт (69%)
Заголовок : Seeking.Justice.2011.720p.BuRay.x264-EbP
Библиотека кодирования : x264 core 120 r2164 da19765
Настройки программы : cabac=1 / ref=11 / deblock=1:-3:-3 / analyse=0x3:0x113 / me=tesa / subme=11 / psy=1 / psy_rd=1.05:0.05 / mixed_ref=1 / me_range=24 / chroma_me=1 / trellis=2 / 8x8dct=1 / cqm=0 / deadzone=21,11 / fast_pskip=0 / chroma_qp_offset=-3 / threads=6 / sliced_threads=0 / nr=0 / decimate=0 / interlaced=0 / bluray_compat=0 / constrained_intra=0 / bframes=7 / b_pyramid=2 / b_adapt=2 / b_bias=0 / direct=3 / weightb=1 / open_gop=0 / weightp=2 / keyint=250 / keyint_min=24 / scenecut=40 / intra_refresh=0 / rc_lookahead=60 / rc=crf / mbtree=0 / crf=16.0 / qcomp=0.60 / qpmin=0 / qpmax=69 / qpstep=4 / vbv_maxrate=38000 / vbv_bufsize=30000 / crf_max=0.0 / nal_hrd=none / ip_ratio=1.40 / pb_ratio=1.30 / aq=1:0.75
Язык : English
Основные цвета : BT.709-5, BT.1361, IEC 61966-2-4, SMPTE RP177
Характеристики трансфера : BT.709-5, BT.1361
Коэффициенты матрицы : BT.709-5, BT.1361, IEC 61966-2-4 709, SMPTE RP177
Аудио #1
Идентификатор : 2
Формат : DTS
Формат/Информация : Digital Theater Systems
Идентификатор кодека : A_DTS
Продолжительность : 1 ч. 45 м.
Вид битрейта : Постоянный
Битрейт : 1510 Кбит/сек
Каналы : 6 каналов
Расположение каналов : Front: L C R, Side: L R, LFE
Частота : 48,0 КГц
Битовая глубина : 24 бит
Метод сжатия : С потерями
Размер потока : 1,11 Гбайт (15%)
Язык : Russian
Аудио #2
Идентификатор : 3
Формат : DTS
Формат/Информация : Digital Theater Systems
Идентификатор кодека : A_DTS
Продолжительность : 1 ч. 45 м.
Вид битрейта : Постоянный
Битрейт : 1510 Кбит/сек
Каналы : 6 каналов
Расположение каналов : Front: L C R, Side: L R, LFE
Частота : 48,0 КГц
Битовая глубина : 24 бит
Метод сжатия : С потерями
Размер потока : 1,11 Гбайт (15%)
Язык : English
Текст
Идентификатор : 4
Формат : UTF-8
Идентификатор кодека : S_TEXT/UTF8
Идентификатор кодека/Информация : UTF-8 Plain Text
Язык : English
Меню
00:00:00.000 : en:Chapter 01
00:08:46.833 : en:Chapter 02
00:19:30.000 : en:Chapter 03
00:28:36.417 : en:Chapter 04
00:36:45.833 : en:Chapter 05
00:46:19.417 : en:Chapter 06
00:56:21.000 : en:Chapter 07
01:03:30.000 : en:Chapter 08
01:12:38.500 : en:Chapter 09
01:21:04.083 : en:Chapter 10
01:29:34.167 : en:Chapter 11
01:39:49.000 : en:Chapter 12

_________________
[Торрент-статистика]
[Профиль]  [ЛС] 
Показать сообщения:    
Ответить на тему

Текущее время: Сегодня 10:26

Часовой пояс: GMT + 4



Вы не можете начинать темы
Вы не можете отвечать на сообщения
Вы не можете редактировать свои сообщения
Вы не можете удалять свои сообщения
Вы не можете голосовать в опросах
Вы не можете прикреплять файлы к сообщениям
Вы не можете скачивать файлы