Глаза змеи / Snake Eyes (Брайан Де Пальма / Brian De Palma [1998, США, триллер, криминал, мистика, WEB-DL 720p] DUB + MVO + VO + Original Eng + Sub Rus Eng

Ответить на тему
 
Автор
Сообщение

awk05 ®

Пол:

Стаж: 5 лет 5 месяцев

Сообщений: 1352

Репутация: 275 [+] [-]

Откуда: Западная Украина Ривне

Пост 06-Фев-2014 17:23

[Цитировать] 

Глаза змеи / Snake Eyes --Страна: США
Студия: Centropolis Entertainment, Columbia Pictures, Relativity Media, Studio Babelsberg Motion Pictures GmbH
Жанр: триллер, криминал, мистика
Год выпуска: 1998
Продолжительность: 01:38:18
Перевод 1: Дублированный [лицензия]
Перевод 2: Профессиональный многоголосый [Первый Канал]
Перевод 3: Одноголосый закадровый [Юрий Живов]
Cубтитры: русские, английские
Оригинальная аудиодорожка: английская--
Режиссер: Брайан Де Пальма / Brian De Palma--
В ролях: Николас Кейдж (Rick Santoro), Гэри Синиз (Commander Kevin Dunne), Джон Хёрд (Gilbert Powell), Карла Гуджино (Julia Costello), Стэн Шоу (Lincoln Tyler), Кевин Данн (Lou Logan), Майкл Рисполи (Jimmy George), Джоэл Фабиани (Charles Kirkland), Луис Гусман (Cyrus), Дэвид Энтони Хиггинс (Ned Campbell), Майк Старр (Walt McGahn)--Описание: Начиная с первых сенсационных выстрелов и заканчивая неожиданным финалом, фильм полон загадок и тревожного ожидания. Кейдж играет роль Рика Санторо, эксцентричного детектива полиции Атлантик-Сити, который приходит посмотреть на своего спортивного кумира и заодно поправить свои финансовые дела на тотализаторе. Внезапная стрельба во время поединка превращает 14 тысяч болельщиков в свидетелей политического убийства. Показания свидетелей, видеозаписи электронной системы наблюдения за казино и информация, полученная от таинственной незнакомки в белом, — все это вместе рисует перед видавшим виды Санторо настолько невероятную картину убийства, что он просто отказывается в нее верить.--
Тип релиза: WEB-DL 720p
Контейнер: MKV
Видео кодек: AVC (Main@L3.1)
Аудио кодек: AC3
Видео: 1280x536 (2.35:1), 23,976 кадра/сек, 3279 Кбит/сек, 0.199 Бит/(Пиксели*Кадры)
Аудио 1: 6 каналов Front: L C R, Side: L R, LFE, 48,0 КГц, 448 Кбит/сек, 16 бит [RUS] DUB R5
Аудио 2: 2 канала Front: L R, 48,0 КГц, 192 Кбит/сек, 16 бит [RUS] MVO Первый канал
Аудио 3: 6 каналов Front: L C R, Side: L R, LFE, 48,0 КГц, 384 Кбит/сек, 16 бит [RUS] АVO Юрий Живов
Аудио 4: 6 каналов Front: L C R, Side: L R, LFE, 48,0 КГц, 384 Кбит/сек, 16 бит [ENG]
Формат субтитров: softsub [SRT]
--

MediaInfo

General
Complete name : Snake.Eyes.1998.D.WEB-DL.720p.mkv
Format : Matroska
File size : 3.65 GiB
Duration : 1h 49mn
Overall bit rate : 4 782 Kbps
Movie name : BlackSnow
Encoded date : UTC 2012-01-22 20:28:06
Writing application : mkvmerge v4.9.1 ('Ich will') сборка от Jul 11 2011 23:53:15
Writing library : libebml v1.2.1 + libmatroska v1.1.1
Video
ID : 1
Format : AVC
Format/Info : Advanced Video Codec
Format profile : Main@L3.1
Format settings, CABAC : No
Format settings, ReFrames : 2 frames
Format settings, GOP : M=2, N=32
Codec ID : V_MPEG4/ISO/AVC
Duration : 1h 49mn
Bit rate mode : Variable
Bit rate : 3 279 Kbps
Width : 1 280 pixels
Height : 536 pixels
Display aspect ratio : 2.35:1
Frame rate : 23.976 fps
Color space : YUV
Chroma subsampling : 4:2:0
Bit depth : 8 bits
Scan type : Progressive
Bits/(Pixel*Frame) : 0.199
Stream size : 2.50 GiB (69%)
Title : Snake Eyes (HD) by dynam1te
Language : English
Color primaries : BT.709-5, BT.1361, IEC 61966-2-4, SMPTE RP177
Transfer characteristics : BT.709-5, BT.1361
Matrix coefficients : BT.709-5, BT.1361, IEC 61966-2-4 709, SMPTE RP177
Audio #1
ID : 2
Format : AC-3
Format/Info : Audio Coding 3
Mode extension : CM (complete main)
Codec ID : A_AC3
Duration : 1h 49mn
Bit rate mode : Constant
Bit rate : 448 Kbps
Channel(s) : 6 channels
Channel positions : Front: L C R, Side: L R, LFE
Sampling rate : 48.0 KHz
Bit depth : 16 bits
Stream size : 350 MiB (9%)
Title : DUB R5
Language : Russian
Audio #2
ID : 3
Format : AC-3
Format/Info : Audio Coding 3
Mode extension : CM (complete main)
Codec ID : A_AC3
Duration : 1h 49mn
Bit rate mode : Constant
Bit rate : 192 Kbps
Channel(s) : 2 channels
Channel positions : Front: L R
Sampling rate : 48.0 KHz
Bit depth : 16 bits
Stream size : 150 MiB (4%)
Title : MVO Первый канал
Language : Russian
Audio #3
ID : 4
Format : AC-3
Format/Info : Audio Coding 3
Mode extension : CM (complete main)
Codec ID : A_AC3
Duration : 1h 49mn
Bit rate mode : Constant
Bit rate : 384 Kbps
Channel(s) : 6 channels
Channel positions : Front: L C R, Side: L R, LFE
Sampling rate : 48.0 KHz
Bit depth : 16 bits
Stream size : 300 MiB (8%)
Title : VO Юрий Живов
Language : Russian
Audio #4
ID : 5
Format : AC-3
Format/Info : Audio Coding 3
Mode extension : CM (complete main)
Codec ID : A_AC3
Duration : 1h 49mn
Bit rate mode : Constant
Bit rate : 384 Kbps
Channel(s) : 6 channels
Channel positions : Front: L C R, Side: L R, LFE
Sampling rate : 48.0 KHz
Bit depth : 16 bits
Stream size : 300 MiB (8%)
Title : Original
Language : English
Text #1
ID : 6
Format : UTF-8
Codec ID : S_TEXT/UTF8
Codec ID/Info : UTF-8 Plain Text
Title : Russian
Language : Russian
Text #2
ID : 7
Format : UTF-8
Codec ID : S_TEXT/UTF8
Codec ID/Info : UTF-8 Plain Text
Title : English
Language : English

Скриншоты




_________________
[Торрент-статистика]
[Профиль]  [ЛС] 
Показать сообщения:    
Ответить на тему

Текущее время: Сегодня 13:30

Часовой пояс: GMT + 4



Вы не можете начинать темы
Вы не можете отвечать на сообщения
Вы не можете редактировать свои сообщения
Вы не можете удалять свои сообщения
Вы не можете голосовать в опросах
Вы не можете прикреплять файлы к сообщениям
Вы не можете скачивать файлы