Время ведьм / Season of the Witch (Доминик Сена / Dominic Sena) [2011, США, фэнтези, боевик, приключения, BDRip 720p] Dub, VO, Sub Rus, Eng + Original Eng

Ответить на тему
 
Автор
Сообщение

awk05 ®

Пол:

Стаж: 5 лет 5 месяцев

Сообщений: 1352

Репутация: 275 [+] [-]

Откуда: Западная Украина Ривне

Пост 06-Фев-2014 15:26

[Цитировать] 

--Время ведьм / Season of the Witch«Не все души можно спасти»-- Страна: США
Жанр: фэнтези, боевик, приключения
Год выпуска: 2011
Продолжительность: 01:34:54
Перевод 1: Профессиональный (дублированный)
Перевод 2: Одноголосый закадровый - zamez
Cубтитры: русские, английские
Оригинальная аудиодорожка: английский--
Режиссер: Режиссер: Доминик Сена / Dominic Sena--
В ролях: Николас Кейдж (Behmen), Рон Перлман (Felson), Стивен Кэмпбелл Мур (Debelzaq), Стивен Грэм (Hagamar), Ульрих Томсен (Eckhart), Клер Фой (The Girl), Роберт Шиэн (Kay), Кристофер Ли (Cardinal D'Ambroise), Ребека Кеннеди (Peasant Turk Girl), Эндрю Хефлер (Jail Bailiff), Фернанда Дороги (Old Woman), Кевин Риис (Dying Monk)--
Описание: XIV столетие. В Европе свирепствует чума. Виновницей смертоносной беды признают беззащитную девушку, подозревая ее в колдовстве. Умирающий кардинал просит рыцаря Бэймена доставить ведьму в далекое аббатство, где ее чары должны быть разрушены.
Семеро верховых и повозка с железной клеткой, в которой заточена обвиняемая, отправляются в опасное путешествие. Скоро рыцари осознают, их миловидная спутница действительно не человек, а исчадие ада.--

Качество: BDRip 720p
Формат: MKV
Видео кодек: XviD
Аудио кодек: DTS
Видео: 1280x720 (16:9), 23,976 кадра/сек, 7 577 Кбит/сек, 0.343 Бит/(Пиксели*Кадры)
Аудио 1: 6 каналов Front: L C R, Side: L R, LFE, 48,0 КГц, 1536 Кбит/сек, 24 бит [RUS] DUB
Аудио 2: 6 каналов Front: L C R, Side: L R, LFE, 48,0 КГц, 1536 Кбит/сек, 16 бит [RUS] AVO
Аудио 3: 6 каналов Front: L C R, Side: L R, LFE, 48,0 КГц, 1536 Кбит/сек, 24 бит [ENG]
Формат субтитров: softsub (SRT)--
--

MediaInfo

General
Unique ID : 239038199272172202610136415671450549252 (0xB3D5152429F818BF9627006D89233C04)
Complete name : E:\My torrents\Season of the Witch (2010.720p).mkv
Format : Matroska
Format version : Version 2
File size : 8.03 GiB
Duration : 1h 34mn
Overall bit rate : 12.1 Mbps
Movie name : Season of the Witch (2010)
Encoded date : UTC 2012-01-08 07:58:42
Writing application : mkvmerge v4.6.0 ('Still Crazy After All These Years') сборка от Mar 10 2011 02:50:32
Writing library : libebml v1.2.0 + libmatroska v1.1.0
Video
ID : 1
Format : AVC
Format/Info : Advanced Video Codec
Format profile : High@L4.1
Format settings, CABAC : Yes
Format settings, ReFrames : 9 frames
Codec ID : V_MPEG4/ISO/AVC
Duration : 1h 34mn
Bit rate : 7 577 Kbps
Width : 1 280 pixels
Height : 720 pixels
Display aspect ratio : 16:9
Frame rate : 23.976 fps
Color space : YUV
Chroma subsampling : 4:2:0
Bit depth : 8 bits
Scan type : Progressive
Bits/(Pixel*Frame) : 0.343
Stream size : 4.86 GiB (61%)
Writing library : x264 core 114 r1924 08d04a4
Encoding settings : cabac=1 / ref=9 / deblock=1:-3:-3 / analyse=0x3:0x113 / me=tesa / subme=10 / psy=1 / psy_rd=1.05:0.08 / mixed_ref=1 / me_range=32 / chroma_me=1 / trellis=2 / 8x8dct=1 / cqm=1 / deadzone=21,11 / fast_pskip=0 / chroma_qp_offset=-3 / threads=12 / sliced_threads=0 / nr=0 / decimate=1 / interlaced=0 / constrained_intra=0 / bframes=6 / b_pyramid=2 / b_adapt=2 / b_bias=0 / direct=3 / weightb=1 / open_gop=0 / weightp=2 / keyint=250 / keyint_min=23 / scenecut=40 / intra_refresh=0 / rc_lookahead=80 / rc=2pass / mbtree=1 / bitrate=7577 / ratetol=1.0 / qcomp=0.60 / qpmin=4 / qpmax=69 / qpstep=4 / cplxblur=20.0 / qblur=0.5 / ip_ratio=1.40 / aq=1:0.90
Language : English
Audio #1
ID : 2
Format : DTS
Format/Info : Digital Theater Systems
Codec ID : A_DTS
Duration : 1h 34mn
Bit rate mode : Constant
Bit rate : 1 510 Kbps
Channel(s) : 6 channels
Channel positions : Front: L C R, Side: L R, LFE
Sampling rate : 48.0 KHz
Bit depth : 24 bits
Compression mode : Lossy
Stream size : 1.00 GiB (12%)
Title : dub
Language : Russian
Audio #2
ID : 3
Format : DTS
Format/Info : Digital Theater Systems
Codec ID : A_DTS
Duration : 1h 34mn
Bit rate mode : Constant
Bit rate : 1 510 Kbps
Channel(s) : 6 channels
Channel positions : Front: L C R, Side: L R, LFE
Sampling rate : 48.0 KHz
Bit depth : 16 bits
Compression mode : Lossy
Stream size : 1.00 GiB (12%)
Title : zamez
Language : Russian
Audio #3
ID : 4
Format : DTS
Format/Info : Digital Theater Systems
Codec ID : A_DTS
Duration : 1h 34mn
Bit rate mode : Constant
Bit rate : 1 510 Kbps
Channel(s) : 6 channels
Channel positions : Front: L C R, Side: L R, LFE
Sampling rate : 48.0 KHz
Bit depth : 24 bits
Compression mode : Lossy
Stream size : 1.00 GiB (12%)
Title : original
Language : English
Text #1
ID : 5
Format : UTF-8
Codec ID : S_TEXT/UTF8
Codec ID/Info : UTF-8 Plain Text
Language : Russian
Text #2
ID : 6
Format : UTF-8
Codec ID : S_TEXT/UTF8
Codec ID/Info : UTF-8 Plain Text
Language : English
Text #3
ID : 7
Format : UTF-8
Codec ID : S_TEXT/UTF8
Codec ID/Info : UTF-8 Plain Text
Language : Bulgarian
Text #4
ID : 8
Format : UTF-8
Codec ID : S_TEXT/UTF8
Codec ID/Info : UTF-8 Plain Text
Language : Greek
Text #5
ID : 9
Format : UTF-8
Codec ID : S_TEXT/UTF8
Codec ID/Info : UTF-8 Plain Text
Language : Spanish
Text #6
ID : 10
Format : UTF-8
Codec ID : S_TEXT/UTF8
Codec ID/Info : UTF-8 Plain Text
Language : Swedish
Menu
00:00:00.000 : :Chapter 01
00:05:34.751 : :Chapter 02
00:12:02.930 : :Chapter 03
00:16:29.196 : :Chapter 04
00:23:05.592 : :Chapter 05
00:28:58.236 : :Chapter 06
00:33:58.661 : :Chapter 07
00:39:42.213 : :Chapter 08
00:44:59.363 : :Chapter 09
00:48:58.685 : :Chapter 10
00:55:39.794 : :Chapter 11
01:03:07.909 : :Chapter 12
01:08:13.631 : :Chapter 13
01:14:18.287 : :Chapter 14
01:23:47.897 : :Chapter 15
01:27:06.721 : :Chapter 16

Скриншоты



_________________
[Торрент-статистика]
[Профиль]  [ЛС] 
Показать сообщения:    
Ответить на тему

Текущее время: Сегодня 04:08

Часовой пояс: GMT + 4



Вы не можете начинать темы
Вы не можете отвечать на сообщения
Вы не можете редактировать свои сообщения
Вы не можете удалять свои сообщения
Вы не можете голосовать в опросах
Вы не можете прикреплять файлы к сообщениям
Вы не можете скачивать файлы