Воспитывая Аризону / Воспитание Аризоны / Raising Arizona (Джоэл Коэн / Joel Coen, Итэн Коэн / Ethan Coen) [1987, США, комедия, криминал, детектив, приключения, BDRip 720p] DVO + DVO + AVO + Sub rus + original eng

Ответить на тему
 
Автор
Сообщение

awk05 ®

Пол:

Стаж: 8 лет 9 месяцев

Сообщений: 1334

Репутация: 278 [+] [-]

Откуда: Западная Украина Ривне

Пост 06-Фев-2014 14:57

[Цитировать] 

--Воспитывая Аризону / Воспитание Аризоны / Raising Arizona-- Страна: США
Жанр: комедия, криминал, детектив, приключения
Год выпуска: 1987
Продолжительность: 01:34:06
Перевод (1): Профессиональный (двухголосый закадровый) - CEE
Перевод (2): Профессиональный (двухголосый закадровый)
Перевод (3): Авторский (одноголосый закадровый) - А. Гаврилов
Cубтитры: русские (3 вида), английские
Оригинальная аудиодорожка: английский--
Режиссер: Джоэл Коэн / Joel Coen, Итэн Коэн / Ethan Coen--
В ролях: Николас Кейдж (H.I. McDunnough), Холли Хантер (Edwina 'Ed' McDunnough), Трей Уилсон (Nathan Arizona Huffhines, Sr.), Джон Гудмен (Gale Snoats), Уильям Форсайт (Evelle Snoats), Сэм МакМюррей (Glen), Фрэнсис МакДорманд (Dot), Рэндал «Текс» Кобб (Leonard Smalls), Т.Дж. Кун (Nathan Arizona, Jr.), Линн Китей (Florence Arizona), Питер Бенедек (Prison Counselor), Чарльз «Лью» Смит (Nice Old Grocery Man)--
Описание: Хай был мелким грабителем. Эдвина служила в полиции. Они встречались регулярно — после того, как его в очередной раз хватали и везли в кутузку. А потом Хай и Эдвина поженились.
Эта странная пара была вполне счастлива, но у них не было детей, и тогда они решили похитить младенца, чтобы было кого воспитывать…--

Тип релиза: BDRip 720p
Контейнер: MKV
Видео кодек: XviD
Аудио кодек: AC3, DTS
Видео: 1280x692 (1.850), 23,976 кадра/сек, 6 204 Кбит/сек, 0.292 Бит/(Пиксели*Кадры)
Аудио 1: 6 каналов Front: L C R, Side: L R, LFE, 48,0 КГц, 448 Кбит/сек, 16 бит [RUS] DVO (CEE)
Аудио 2: 2 канала Front: L R, 48,0 КГц, 224 Кбит/сек, 16 бит [RUS] DVO
Аудио 3: 2 канала Front: L R, 48,0 КГц, 224 Кбит/сек, 16 бит [RUS] AVO (Гаврилов)
Аудио 4: 6 каналов Front: L C R, Side: L R, LFE, 48,0 КГц, 448 Кбит/сек, 16 бит [ENG]
Формат субтитров: русские (3 вида), английские - softsub (SRT)--
--

Скриншоты


Знаете ли вы, что...

* Пятерых близнецов в картине играли пятнадцать детей. Одного ребенка пришлось со съемок убрать, так как он «не вовремя» научился ходить.
* Начальные титры фильма длятся 11 минут.
* Кевин Костнер отказался от главной роли.
* Роль героини Холли Хантер был придумана братьями Коэн специально для этой актрисы.

MediaInfo

Format : Matroska
Format version : Version 2
File size : 5.62 GiB
Duration : 1h 34mn
Overall bit rate : 8 545 Kbps
Movie name : Воспитывая Аризону / Raising Arizona (1987) BDRip 720p
Encoded date : UTC 2011-08-07 17:37:42
Writing application : mkvmerge v4.9.1 ('Ich will') сборка от Jul 11 2011 23:53:15
Writing library : libebml v1.2.1 + libmatroska v1.1.1
Attachment : Yes
Video
ID : 1
Format : AVC
Format/Info : Advanced Video Codec
Format profile : High@L4.0
Format settings, CABAC : Yes
Format settings, ReFrames : 9 frames
Codec ID : V_MPEG4/ISO/AVC
Duration : 1h 34mn
Bit rate : 6 204 Kbps
Width : 1 280 pixels
Height : 692 pixels
Display aspect ratio : 1.850
Frame rate : 23.976 fps
Color space : YUV
Chroma subsampling : 4:2:0
Bit depth : 8 bits
Scan type : Progressive
Bits/(Pixel*Frame) : 0.292
Stream size : 3.97 GiB (71%)
Writing library : x264 core 116 r2044 392e762
Encoding settings : cabac=1 / ref=9 / deblock=1:-1:-1 / analyse=0x3:0x113 / me=umh / subme=10 / psy=1 / psy_rd=1.00:0.00 / mixed_ref=1 / me_range=32 / chroma_me=1 / trellis=2 / 8x8dct=1 / cqm=0 / deadzone=21,11 / fast_pskip=0 / chroma_qp_offset=-2 / threads=6 / sliced_threads=0 / nr=0 / decimate=1 / interlaced=0 / bluray_compat=0 / constrained_intra=0 / bframes=10 / b_pyramid=2 / b_adapt=2 / b_bias=0 / direct=3 / weightb=1 / open_gop=0 / weightp=2 / keyint=250 / keyint_min=23 / scenecut=40 / intra_refresh=0 / rc=2pass / mbtree=0 / bitrate=6204 / ratetol=1.0 / qcomp=0.60 / qpmin=0 / qpmax=69 / qpstep=4 / cplxblur=20.0 / qblur=0.5 / ip_ratio=1.40 / pb_ratio=1.30 / aq=1:1.00 / zones=130752,135375,b=0.35
Language : English
Color primaries : BT.709-5, BT.1361, IEC 61966-2-4, SMPTE RP177
Transfer characteristics : BT.709-5, BT.1361
Matrix coefficients : BT.709-5, BT.1361, IEC 61966-2-4 709, SMPTE RP177
Audio #1
ID : 2
Format : AC-3
Format/Info : Audio Coding 3
Mode extension : CM (complete main)
Codec ID : A_AC3
Duration : 1h 34mn
Bit rate mode : Constant
Bit rate : 448 Kbps
Channel(s) : 6 channels
Channel positions : Front: L C R, Side: L R, LFE
Sampling rate : 48.0 KHz
Bit depth : 16 bits
Compression mode : Lossy
Stream size : 302 MiB (5%)
Title : AC3, 5.1 ch, 448 Kbps, DVO [CEE / R5]
Language : Russian
Audio #2
ID : 3
Format : AC-3
Format/Info : Audio Coding 3
Mode extension : CM (complete main)
Codec ID : A_AC3
Duration : 1h 34mn
Bit rate mode : Constant
Bit rate : 192 Kbps
Channel(s) : 2 channels
Channel positions : Front: L R
Sampling rate : 48.0 KHz
Bit depth : 16 bits
Compression mode : Lossy
Stream size : 129 MiB (2%)
Title : AC3, 2.0 ch, 192 Kbps, DVO
Language : Russian
Audio #3
ID : 4
Format : AC-3
Format/Info : Audio Coding 3
Mode extension : CM (complete main)
Codec ID : A_AC3
Duration : 1h 34mn
Bit rate mode : Constant
Bit rate : 192 Kbps
Channel(s) : 2 channels
Channel positions : Front: L R
Sampling rate : 48.0 KHz
Bit depth : 16 bits
Compression mode : Lossy
Stream size : 129 MiB (2%)
Title : AC3, 2.0 ch, 192 Kbps, AVO [Gavrilov]
Language : Russian
Audio #4
ID : 5
Format : DTS
Format/Info : Digital Theater Systems
Codec ID : A_DTS
Duration : 1h 34mn
Bit rate mode : Constant
Bit rate : 1 510 Kbps
Channel(s) : 6 channels
Channel positions : Front: L C R, Side: L R, LFE
Sampling rate : 48.0 KHz
Bit depth : 24 bits
Compression mode : Lossy
Stream size : 1 016 MiB (18%)
Title : DTS, 5.1 ch, 1510 Kbps, ENG
Language : English
Text #1
ID : 6
Format : UTF-8
Codec ID : S_TEXT/UTF8
Codec ID/Info : UTF-8 Plain Text
Title : Russian - Fox / СEE
Language : Russian
Text #2
ID : 7
Format : UTF-8
Codec ID : S_TEXT/UTF8
Codec ID/Info : UTF-8 Plain Text
Title : Russian - 2
Language : Russian
Text #3
ID : 8
Format : UTF-8
Codec ID : S_TEXT/UTF8
Codec ID/Info : UTF-8 Plain Text
Title : Russian - 3
Language : Russian
Text #4
ID : 9
Format : UTF-8
Codec ID : S_TEXT/UTF8
Codec ID/Info : UTF-8 Plain Text
Title : English
Language : English
Menu
00:00:00.000 : en:The Revolving Door of Justice
00:06:08.326 : en:The Salad Days
00:11:05.498 : en:Main Titles
00:11:37.655 : en:The Arizona Household
00:17:23.668 : en:A Hot Baby
00:21:30.706 : en:The Snopes' Redemption
00:27:23.267 : en:The Dream Warrior
00:30:00.215 : en:A Federal Case
00:35:36.509 : en:Glen and Dot
00:42:38.765 : en:H.I. on the Run
00:50:34.907 : en:A Tempting Proposition
00:55:05.886 : en:Letter of Love
00:57:38.455 : en:Leonard Smalls
01:01:41.531 : en:Everyone Wants Junior
01:06:54.010 : en:Junior's New Daddies
01:11:06.721 : en:Breaking Up
01:13:08.926 : en:The Bank Job
01:17:16.090 : en:Warthog From Hell
01:22:40.789 : en:Home Again
01:27:29.661 : en:Dream On
01:30:53.448 : en:End Titles

_________________
[Торрент-статистика]
[Профиль]  [ЛС] 
Показать сообщения:    
Ответить на тему

Текущее время: Сегодня 06:25

Часовой пояс: GMT + 4



Вы не можете начинать темы
Вы не можете отвечать на сообщения
Вы не можете редактировать свои сообщения
Вы не можете удалять свои сообщения
Вы не можете голосовать в опросах
Вы не можете прикреплять файлы к сообщениям
Вы не можете скачивать файлы