Воскрешая мертвецов / Bringing Out the Dead (Мартин Скорсезе / Martin Scorsese) [1999, триллер, драма, WEB-DL 720p] Dub + AVO + Orig + Sub

Ответить на тему
 
Автор
Сообщение

awk05 ®

Пол:

Стаж: 5 лет 2 месяца

Сообщений: 1352

Репутация: 275 [+] [-]

Откуда: Западная Украина Ривне

Пост 06-Фев-2014 14:25

[Цитировать] 

--Воскрешая мертвецов / Bringing Out the Dead-- Год выпуска: 1999
Страна: США
Жанр: триллер, драма
Продолжительность: 02:01:01
Перевод: Дублированный + Авторский (Гаврилов Андрей),(Живов Юрий)
Cубтитры: русские, украинские, английские
Навигация по главам: есть--
Режиссер: Мартин Скорсезе / Martin Scorsese--
В ролях: Николас Кейдж (Frank Pierce,), Патриция Аркетт (Mary Burke), Джон Гудмен (Larry), Винг Реймз (Marcus), Том Сайзмор (Tom Wolls), Марк Энтони (Noel), Мэри Бет Херт (Nurse Constance), Клифф Кёртис (Cy Coates), Нестор Серрано (Dr. Hazmat), Аида Туртурро (Nurse Crupp), Соня Сон (Kanita), Синтия Роман (Rose)--
Описание: Воет сирена. Вспышки слепят глаза. По ночному Нью-Йорку навстречу смерти мчится «Скорая помощь». Фрэнк Пирс - парамедик, работающий в ночную смену. Фрэнка постоянно преследуют видения - призраки людей, которых он так и не сумел спасти. Его жизнь превращается в ад, он - на грани срыва, и все же продолжает борьбу со смертью.--
Качество: WEB-DL
Формат: MKV
Видео кодек: AVC (Main@L3.1)
Аудио кодек: AC3
Видео: 1280x542 (2.35:1), 23,976 кадра/сек, 3968 Кбит/сек, 0.239 Бит/(Пиксели*Кадры)
Аудио 1: 2 канала Front: L R, 48,0 КГц, 192 Кбит/сек, 16 бит [RUS] DUB
Аудио 2: 6 каналов Front: L C R, Side: L R, LFE, 48,0 КГц, 448 Кбит/сек, 16 бит [RUS] AVO Гаврилов
Аудио 3: 6 каналов Front: L C R, Side: L R, LFE, 48,0 КГц, 448 Кбит/сек, 16 бит [RUS] AVO Живов
Аудио 4: 6 каналов Front: L C R, Side: L R, LFE, 48,0 КГц, 384 Кбит/сек, 16 бит [ENG]-- --

Знаете ли Вы, что...

* Перед съемками фильма Кейдж ходил на круглосуточные дежурства вместе с бригадой врачей.
* Диспетчеров, так и не появляющихся в кадре, «озвучили» Мартин Скорсезе и Куин Латифа.
* В эпизоде, где Фрэнк пытается спасти Роуз (Синтия Роман), актеры намерено сыграли сцену «задом наперед». Это добавило фантасмагоричности фильму – появилось ощущение, что даже снег не падает, а словно взлетает вверх с земли.
* Одного из пациентов «скорой помощи» сыграл Джо Коннелли, автор романа, легшего в основу фильма, сам – врач нью-йоркской «скорой помощи».

Скриншоты

MI

General
Unique ID : 203812631920603999794643001377579289026 (0x9954E294FF71FA57ABCC0F1D463B49C2)
Complete name : Bringing.Out.the.Dead.1999.720p.WEB-DL.mkv
Format : Matroska
Format version : Version 2
File size : 4.69 GiB
Duration : 2h 1mn
Overall bit rate : 5 551 Kbps
Movie name : Bringing Out the Dead (1999) - Release for RuTracker
Encoded date : UTC 2012-02-08 06:23:59
Writing application : mkvmerge v5.2.1 ('A Far Off Place') built on Jan 2 2012 23:21:10
Writing library : libebml v1.2.3 + libmatroska v1.3.0
Attachment : Yes
Video
ID : 1
Format : AVC
Format/Info : Advanced Video Codec
Format profile : Main@L3.1
Format settings, CABAC : No
Format settings, ReFrames : 2 frames
Codec ID : V_MPEG4/ISO/AVC
Duration : 2h 1mn
Bit rate : 3 968 Kbps
Width : 1 280 pixels
Height : 542 pixels
Display aspect ratio : 2.35:1
Frame rate : 23.976 fps
Color space : YUV
Chroma subsampling : 4:2:0
Bit depth : 8 bits
Scan type : Progressive
Bits/(Pixel*Frame) : 0.239
Stream size : 3.35 GiB (71%)
Title : Release for RuTracker
Language : English
Default : Yes
Forced : No
Color primaries : BT.709-5, BT.1361, IEC 61966-2-4, SMPTE RP177
Transfer characteristics : BT.709-5, BT.1361
Matrix coefficients : BT.709-5, BT.1361, IEC 61966-2-4 709, SMPTE RP177
Audio #1
ID : 2
Format : AC-3
Format/Info : Audio Coding 3
Mode extension : CM (complete main)
Codec ID : A_AC3
Duration : 2h 1mn
Bit rate mode : Constant
Bit rate : 192 Kbps
Channel(s) : 2 channels
Channel positions : Front: L R
Sampling rate : 48.0 KHz
Bit depth : 16 bits
Compression mode : Lossy
Stream size : 166 MiB (3%)
Title : AC3 2.0 @ 192 kbps - Дублированный
Language : Russian
Default : Yes
Forced : No
Audio #2
ID : 3
Format : AC-3
Format/Info : Audio Coding 3
Mode extension : CM (complete main)
Codec ID : A_AC3
Duration : 2h 1mn
Bit rate mode : Constant
Bit rate : 448 Kbps
Channel(s) : 6 channels
Channel positions : Front: L C R, Side: L R, LFE
Sampling rate : 48.0 KHz
Bit depth : 16 bits
Compression mode : Lossy
Stream size : 388 MiB (8%)
Title : AC3 5.1 @ 448 kbps - Одноголосный, А. Гаврилов
Language : Russian
Default : No
Forced : No
Audio #3
ID : 4
Format : AC-3
Format/Info : Audio Coding 3
Mode extension : CM (complete main)
Codec ID : A_AC3
Duration : 2h 1mn
Bit rate mode : Constant
Bit rate : 448 Kbps
Channel(s) : 6 channels
Channel positions : Front: L C R, Side: L R, LFE
Sampling rate : 48.0 KHz
Bit depth : 16 bits
Compression mode : Lossy
Stream size : 388 MiB (8%)
Title : AC3 5.1 @ 448 kbps - Одноголосный, Ю. Живов
Language : Russian
Default : No
Forced : No
Audio #4
ID : 5
Format : AC-3
Format/Info : Audio Coding 3
Mode extension : CM (complete main)
Codec ID : A_AC3
Duration : 2h 1mn
Bit rate mode : Constant
Bit rate : 384 Kbps
Channel(s) : 6 channels
Channel positions : Front: L C R, Side: L R, LFE
Sampling rate : 48.0 KHz
Bit depth : 16 bits
Compression mode : Lossy
Stream size : 332 MiB (7%)
Title : AC3 5.1 @ 384 kbps
Language : English
Default : No
Forced : No
Text #1
ID : 6
Format : UTF-8
Codec ID : S_TEXT/UTF8
Codec ID/Info : UTF-8 Plain Text
Language : Russian
Default : No
Forced : No
Text #2
ID : 7
Format : UTF-8
Codec ID : S_TEXT/UTF8
Codec ID/Info : UTF-8 Plain Text
Language : Ukrainian
Default : No
Forced : No
Text #3
ID : 8
Format : UTF-8
Codec ID : S_TEXT/UTF8
Codec ID/Info : UTF-8 Plain Text
Language : English
Default : No
Forced : No
Menu
00:00:00.000 : en:Opening/Old Man Burke
00:07:19.022 : en:"Our Lady of Perpetual Mercy" Er
00:13:54.751 : en:Beef Lo Mein/Rose's Ghost
00:17:13.866 : en:Mr. Oh
00:20:31.689 : en:First Cigarette
00:22:16.794 : en:Rest Stop
00:25:45.961 : en:Noel's Suicide Attempt
00:29:19.716 : en:Red Death
00:34:10.215 : en:Ride Home
00:35:52.859 : en:Sick Time
00:38:13.541 : en:Love
00:40:50.698 : en:Ib Bangin'
00:43:20.473 : en:Back to Misery
00:48:53.681 : en:Mary's Confession
00:53:06.809 : en:Grief Mop
00:57:22.939 : en:Island Virgins
01:01:05.245 : en:Drunk Driving
01:03:29.055 : en:Mary's Friend
01:07:03.102 : en:The Oasis
01:17:58.215 : en:Mary's Apartment
01:19:45.614 : en:Rough Riders
01:22:33.198 : en:Vitamin B-12 Cocktail
01:24:41.827 : en:Cured
01:27:00.090 : en:Jumpers
01:36:09.430 : en:Mary's Apology
01:39:32.633 : en:Mr. October
01:44:22.214 : en:Saving Noel
01:48:47.646 : en:Frank's Mercy
01:53:03.527 : en:Rose's Forgiveness
01:55:59.494 : en:End Credits

_________________
[Торрент-статистика]
[Профиль]  [ЛС] 
Показать сообщения:    
Ответить на тему

Текущее время: Сегодня 09:42

Часовой пояс: GMT + 4



Вы не можете начинать темы
Вы не можете отвечать на сообщения
Вы не можете редактировать свои сообщения
Вы не можете удалять свои сообщения
Вы не можете голосовать в опросах
Вы не можете прикреплять файлы к сообщениям
Вы не можете скачивать файлы