Воздушная тюрьма / Con Air (Саймон Уэст / Simon West) [1997 г., США, боевик, триллер, криминал, приключения, BDRip 720p]

Ответить на тему
 
Автор
Сообщение

awk05 ®

Пол:

Стаж: 4 года 5 месяцев

Сообщений: 1352

Репутация: 275 [+] [-]

Откуда: Западная Украина Ривне

Пост 06-Фев-2014 03:33

[Цитировать] 

--Воздушная тюрьма / Con Air--
Страна: США
Год выпуска: 1997
Жанр: боевик, триллер, криминал, приключения
Продолжительность: 01:55:27
Перевод: Профессиональный (полное дублирование) + Профессиональный (многоголосый закадровый) ОРТ
Субтитры: Русские + Английские
Главы: есть--Режиссёр: Саймон Уэст / Simon West--В ролях: Николас Кейдж (Cameron Poe), Джон Кьюсак (U.S. Marshal Vince Larkin), Джон Малкович (Cyrus 'The Virus' Grissom), Винг Реймз (Nathan 'Diamond Dog' Jones), Ник Чинланд (William 'Billy Bedlam' Bedford), Стив Бушеми (Garland 'The Marietta Mangler' Greene), Колм Мини (DEA Agent Duncan Malloy), Рейчел Тикотин (Guard Sally Bishop), Дэйв Шаппелл (Joe 'Pinball' Parker), Майкелти Уильямсон (Mike 'Baby-O' O'Dell), Дэнни Трехо (Johnny 'Johnny-23' Baca), М. К. Гейни (Swamp Thing)--Дублёры: Станислав Концевич (Cameron Poe), Анатолий Петров (U.S. Marshal Vince Larkin), Вячеслав Захаров (Cyrus 'The Virus' Grissom), Борис Соколов (Nathan 'Diamond Dog' Jones), Виктор Смирнов (William 'Billy Bedlam' Bedford), Александр Демьяненко (Garland 'The Marietta Mangler' Greene), Михаил Матвеев (DEA Agent Duncan Malloy), Ирина Ракшина (Guard Sally Bishop), Олег Куликович (Joe 'Pinball' Parker), Игорь Окрепилов (Mike 'Baby-O' O'Dell), Иван Краско (Johnny 'Johnny-23' Baca; Swamp Thing; Guard Falzon), Андрей Краско (Ramon 'Sally-Can't Dance' Martinez)--Описание: «Воздушная тюрьма» - транспортное подразделение полиции США, перевозящее особо опасных преступников. Одним из этих рейсов возвращается домой Кэмерон По, освобожденный из тюрьмы после 8 лет заключения. Он так долго ждал этого и ничто не должно остановить его на пути домой.
Внезапно Кэмерон оказывается свидетелем захвата самолета, организованного опаснейшим рецидивистом Сайрусом «Вирусом» Гриссомом. Он решает взять ситуацию в свои руки и помочь полиции, ведь для него это - единственный шанс попасть домой. Только один человек на земле готов поверить ему - шериф Винс Ларкин, который вынужден преодолевать невероятные трудности, чтобы предотвратить бегство преступников и не позволить своим ретивым начальникам взорвать самолет вместе со всеми пассажирами.
--

Качество видео: BDRip
Формат: MKV
Видео кодек: AVC (High@L4.1)
Аудио кодек: AC3, DTS
Видео: 1280 x 546 (2.35:1), 23,976 кадра/сек, 6000 Кбит/сек, 0.29 Бит/(Пиксели*Кадры)
Аудио 1: 2 канала Front: L R, 48,0 КГц, 192 Кбит/сек [RUS] (Дубляж)
Аудио 2: 6 каналов Front: L C R, Side: L R, LFE, 48,0 КГц, 448 Кбит/сек, 16 бит [RUS] (ОРТ)
Аудио 3: 6 каналов Front: L C R, Side: L R, LFE, 48,0 КГц, 1510 Кбит/сек, 16 бит [ENG]--

--

MediaInfo

Код:
General
Unique ID : 247645661164319183813663595069681957701 (0xBA4ED1C70AD114478053AAC96F0BFB45)
Complete name : F:\Con-Air.1997.720p.BluRay.DTS.x264-EbP.mkv
Format : Matroska
Format version : Version 2
File size : 6.57 GiB
Duration : 1h 55mn
Overall bit rate : 8 150 Kbps
Encoded date : UTC 2011-09-12 10:27:45
Writing application : mkvmerge v4.9.1 ('Ich will') built on Sep 7 2011 09:09:18
Writing library : libebml v1.2.1 + libmatroska v1.2.0
Video
ID : 1
Format : AVC
Format/Info : Advanced Video Codec
Format profile : High@L4.1
Format settings, CABAC : Yes
Format settings, ReFrames : 11 frames
Codec ID : V_MPEG4/ISO/AVC
Duration : 1h 55mn
Bit rate : 6 000 Kbps
Width : 1 280 pixels
Height : 546 pixels
Display aspect ratio : 2.35:1
Frame rate : 23.976 fps
Color space : YUV
Chroma subsampling : 4:2:0
Bit depth : 8 bits
Scan type : Progressive
Bits/(Pixel*Frame) : 0.358
Stream size : 4.71 GiB (72%)
Title : EbP
Writing library : x264 core 114 r1924 08d04a4
Encoding settings : cabac=1 / ref=11 / deblock=1:-3:-3 / analyse=0x3:0x133 / me=umh / subme=9 / psy=1 / psy_rd=0.90:0.00 / mixed_ref=1 / me_range=32 / chroma_me=1 / trellis=2 / 8x8dct=1 / cqm=0 / deadzone=21,11 / fast_pskip=0 / chroma_qp_offset=-2 / threads=6 / sliced_threads=0 / nr=0 / decimate=1 / interlaced=0 / constrained_intra=0 / bframes=7 / b_pyramid=2 / b_adapt=2 / b_bias=0 / direct=3 / weightb=1 / open_gop=0 / weightp=2 / keyint=250 / keyint_min=23 / scenecut=40 / intra_refresh=0 / rc=2pass / mbtree=0 / bitrate=6000 / ratetol=1.0 / qcomp=0.60 / qpmin=0 / qpmax=69 / qpstep=4 / cplxblur=20.0 / qblur=0.5 / ip_ratio=1.40 / pb_ratio=1.30 / aq=1:0.60
Language : English
Audio #1
ID : 2
Format : AC-3
Format/Info : Audio Coding 3
Mode extension : CM (complete main)
Codec ID : A_AC3
Duration : 1h 55mn
Bit rate mode : Constant
Bit rate : 192 Kbps
Channel(s) : 2 channels
Channel positions : Front: L R
Sampling rate : 48.0 KHz
Bit depth : 16 bits
Compression mode : Lossy
Stream size : 159 MiB (2%)
Title : AC3 2.0 192 kbps DUB
Language : Russian
Audio #2
ID : 3
Format : AC-3
Format/Info : Audio Coding 3
Mode extension : CM (complete main)
Codec ID : A_AC3
Duration : 1h 55mn
Bit rate mode : Constant
Bit rate : 448 Kbps
Channel(s) : 6 channels
Channel positions : Front: L C R, Side: L R, LFE
Sampling rate : 48.0 KHz
Bit depth : 16 bits
Compression mode : Lossy
Stream size : 370 MiB (5%)
Title : AC3 5.1 448 kbps MVO |ОРТ|
Language : Russian
Audio #3
ID : 4
Format : DTS
Format/Info : Digital Theater Systems
Codec ID : A_DTS
Duration : 1h 55mn
Bit rate mode : Constant
Bit rate : 1 510 Kbps
Channel(s) : 6 channels
Channel positions : Front: L C R, Side: L R, LFE
Sampling rate : 48.0 KHz
Bit depth : 24 bits
Compression mode : Lossy
Stream size : 1.22 GiB (19%)
Title : DTS 5.1 1510 kbps
Language : English
Text #1
ID : 5
Format : UTF-8
Codec ID : S_TEXT/UTF8
Codec ID/Info : UTF-8 Plain Text
Title : Гланц
Language : Russian
Text #2
ID : 6
Format : UTF-8
Codec ID : S_TEXT/UTF8
Codec ID/Info : UTF-8 Plain Text
Language : English
Menu
00:00:00.000 : :00:00:00.000
00:10:03.394 : :00:10:03.394
00:28:25.913 : :00:28:25.913
00:42:52.528 : :00:42:52.528
00:57:22.981 : :00:57:22.981
01:09:02.597 : :01:09:02.597
01:22:53.302 : :01:22:53.302
01:34:51.144 : :01:34:51.144
01:40:36.572 : :01:40:36.572
01:48:10.526 : :01:48:10.526

Скриншоты


_________________
[Торрент-статистика]
[Профиль]  [ЛС] 
Показать сообщения:    
Ответить на тему

Текущее время: Сегодня 15:37

Часовой пояс: GMT + 4



Вы не можете начинать темы
Вы не можете отвечать на сообщения
Вы не можете редактировать свои сообщения
Вы не можете удалять свои сообщения
Вы не можете голосовать в опросах
Вы не можете прикреплять файлы к сообщениям
Вы не можете скачивать файлы