Угнать за 60 секунд / Gone in Sixty Seconds (Доминик Сена / Dominic Sena) [2000 г., боевик, триллер, криминал, BDRip-AVC] Dub + MVO + AVO (Гаврилов) + AVO (Живов) + Original + Subs(Rus, Eng)

Ответить на тему
 
Автор
Сообщение

awk05 ®

Пол:

Стаж: 4 года 5 месяцев

Сообщений: 1352

Репутация: 275 [+] [-]

Откуда: Западная Украина Ривне

Пост 05-Фев-2014 16:46

[Цитировать] 

--Угнать за 60 секунд / Gone in Sixty Seconds«Преступление на пределе скорости»-- Год выпуска: 2000
Страна: США
Жанр: боевик, триллер, криминал
Продолжительность: 01:57:57
Перевод: Профессиональный (полное дублирование) + Авторский (одноголосый, закадровый) Гаврилов + Авторский (одноголосый, закадровый) Живов + Украинский (многоголосый, закадровый) 1+1 + Оригинал
Субтитры: Русские (2 вида), Английские
Навигация по главам: есть (32 главы)--
Режиссер: Доминик Сена / Dominic Sena--
В ролях: Николас Кейдж (Memphis Raines,), Анджелина Джоли (Sara 'Sway' Wayland), Джованни Рибизи (Kip Raines), Т.Дж. Кросс (Mirror Man), Уильям Ли Скотт (Toby), Скотт Каан (Tumbler), Джеймс Дювал (Freb), Уилл Пэттон (Atlee Jackson), Делрой Линдо (Det. Roland Castlebeck), Тимоти Олифант (Detective Drycoff), Чи МакБрайд (Donny Astricky), Роберт Дювалл (Otto Halliwell)--
Роли дублировали: Петр Семак (Memphis Raines), Евгений Иванов (Kip Raines), Артур Ваха (Mirror Man), Михаил Пореченков (Tumbler), Валерий Кухарешин (Atlee Jackson), Геннадий Богачёв (Det. Roland Castlebeck), Владимир Маслаков (Detective Drycoff), Андрей Толубеев (Otto Halliwell), Александр Баргман (Raymond Calitri), Наталья Данилова (Helen Raines), Алексей Гурьев (Cop - At Quality Café), Валерий Соловьев (Exotic Car Salesman)-Описание: Что можно успеть за 60 секунд? Выкурить сигарету или выпить чашку кофе. Но только один профессионал в мире, легендарный вор по кличке Мемфис, может за считанные секунды угнать любой автомобиль. Однако на этот раз ему предстоит сделать невозможное: чтобы спасти своего брата, Мемфис должен за одну ночь угнать 50 первоклассных машин. Чтобы вырваться из двойного капкана мафии и полиции, он должен следовать одному принципу — не останавливаться…--
Качество: BDRip-AVC
Формат: MKV
Видео кодек: AVC (High@L4.0)
Аудио кодек: AC3
Видео: 1120x476 (2.35:1), 23,976 кадра/сек, 3219 Кбит/сек, 0.252 Бит/(Пиксели*Кадры)
Аудио 1: 6 каналов Front: L C R, Side: L R, LFE, 48,0 КГц, 448 Кбит/сек, 16 бит [RUS] DUB
Аудио 2: 6 каналов Front: L C R, Side: L R, LFE, 48,0 КГц, 448 Кбит/сек, 16 бит [RUS] AVO Гаврилов
Аудио 3: 6 каналов Front: L C R, Side: L R, LFE, 48,0 КГц, 448 Кбит/сек, 16 бит [RUS] AVO Живов
Аудио 4: 2 канала Front: L R, 48,0 КГц, 192 Кбит/сек, 16 бит [UKR] MVO 1+1
Аудио 5: 6 каналов Front: L C R, Side: L R, LFE, 48,0 КГц, 448 Кбит/сек, 16 бит [ENG] Оригинал
Субтитры№1: Russian; SRT; UTF-8; Full v.1
Субтитры№1: Russian; SRT; UTF-8; Full v.2
Субтитры№2: English; SRT; UTF-8; Full--
--

MediaInfo

Код:
Общее
UniqueID/String : 189917658132321331368705954361605221485 (0x8EE0CF7B63320E87926281F0E0BDEC6D)
Полное имя : Gone.in.Sixty.Seconds.2000.BDRip-AVC.x264.AC3.tRuAVC.mkv
Формат : Matroska
Размер файла : 4,38 Гбайт
Продолжительность : 1 ч. 58 м.
Общий поток : 5308 Кбит/сек
Дата кодирования : UTC 2010-12-30 19:09:42
Программа кодирования : mkvmerge v4.4.0 ('Die Wiederkehr') built on Oct 31 2010 21:52:48
Библиотека кодирования : libebml v1.0.0 + libmatroska v1.0.0
Обложка : Yes
Видео
Идентификатор : 1
Формат : AVC
Формат/Информация : Advanced Video Codec
Профиль формата : High@L4.0
Параметр CABAC формата : Да
Параметр ReFrames формата : 11 кадры
Идентификатор кодека : V_MPEG4/ISO/AVC
Продолжительность : 1 ч. 58 м.
Битрейт : 3219 Кбит/сек
Ширина : 1120 пикс.
Высота : 476 пикс.
Соотношение сторон : 2,35:1
Частота кадров : 23,976 кадр/сек
Цветовое пространство : YUV
Подвыборка цветности : 4:2:0
Битовая глубина : 8 бит
Тип развёртки : Прогрессивная
Бит/(Пиксели*Кадры) : 0.252
Размер потока : 2,65 Гбайт (61%)
Библиотека кодирования : x264 core 112 r1834kMod a51816a
Настройки программы : cabac=1 / ref=11 / deblock=1:-2:-1 / analyse=0x3:0x113 / me=umh / subme=10 / psy=1 / psy_rd=1.12:0.10 / mixed_ref=1 / me_range=32 / chroma_me=1 / trellis=2 / 8x8dct=1 / cqm=0 / deadzone=21,11 / fast_pskip=1 / chroma_qp_offset=-3 / threads=3 / sliced_threads=0 / nr=0 / decimate=1 / interlaced=0 / constrained_intra=0 / bframes=10 / b_pyramid=2 / b_adapt=2 / b_bias=0 / direct=1 / weightb=1 / open_gop=0 / weightp=2 / keyint=250 / keyint_min=23 / scenecut=40 / intra_refresh=0 / rc=crf / mbtree=0 / crf=18.5000 / qcomp=0.70 / qpmin=0 / qpmax=51 / qpstep=4 / ip_ratio=1.30 / pb_ratio=1.20 / aq=1:1.12 / zones=160645,169667,q=35
Язык : English
Коэффициенты матрицы : BT.709-5, BT.1361, IEC 61966-2-4 709, SMPTE RP177
Аудио #1
Идентификатор : 2
Формат : AC-3
Формат/Информация : Audio Coding 3
Расширение режима : CM (complete main)
Идентификатор кодека : A_AC3
Продолжительность : 1 ч. 58 м.
Вид битрейта : Постоянный
Битрейт : 448 Кбит/сек
Канал(ы) : 6 канала(ов)
Расположение каналов : Front: L C R, Side: L R, LFE
Частота : 48,0 КГц
Битовая глубина : 16 бит
Метод сжатия : С потерями
Задержка видео : 21 мс.
Размер потока : 378 Мбайт (8%)
Заголовок : Профессиональный (полное дублирование)
Язык : Russian
Аудио #2
Идентификатор : 3
Формат : AC-3
Формат/Информация : Audio Coding 3
Расширение режима : CM (complete main)
Идентификатор кодека : A_AC3
Продолжительность : 1 ч. 58 м.
Вид битрейта : Постоянный
Битрейт : 448 Кбит/сек
Канал(ы) : 6 канала(ов)
Расположение каналов : Front: L C R, Side: L R, LFE
Частота : 48,0 КГц
Битовая глубина : 16 бит
Метод сжатия : С потерями
Размер потока : 378 Мбайт (8%)
Заголовок : Авторский (одноголосый, закадровый) Гаврилов
Язык : Russian
Аудио #3
Идентификатор : 4
Формат : AC-3
Формат/Информация : Audio Coding 3
Расширение режима : CM (complete main)
Идентификатор кодека : A_AC3
Продолжительность : 1 ч. 58 м.
Вид битрейта : Постоянный
Битрейт : 448 Кбит/сек
Канал(ы) : 6 канала(ов)
Расположение каналов : Front: L C R, Side: L R, LFE
Частота : 48,0 КГц
Битовая глубина : 16 бит
Метод сжатия : С потерями
Размер потока : 378 Мбайт (8%)
Заголовок : Авторский (одноголосый, закадровый) Живов
Язык : Russian
Аудио #4
Идентификатор : 5
Формат : AC-3
Формат/Информация : Audio Coding 3
Расширение режима : CM (complete main)
Идентификатор кодека : A_AC3
Продолжительность : 1 ч. 58 м.
Вид битрейта : Постоянный
Битрейт : 192 Кбит/сек
Канал(ы) : 2 канала(ов)
Расположение каналов : Front: L R
Частота : 48,0 КГц
Битовая глубина : 16 бит
Метод сжатия : С потерями
Размер потока : 162 Мбайт (4%)
Заголовок : Профессиональный (многоголосый, закадровый) 1+1
Язык : Ukrainian
Аудио #5
Идентификатор : 6
Формат : AC-3
Формат/Информация : Audio Coding 3
Расширение режима : CM (complete main)
Идентификатор кодека : A_AC3
Продолжительность : 1 ч. 58 м.
Вид битрейта : Постоянный
Битрейт : 448 Кбит/сек
Канал(ы) : 6 канала(ов)
Расположение каналов : Front: L C R, Side: L R, LFE
Частота : 48,0 КГц
Битовая глубина : 16 бит
Метод сжатия : С потерями
Размер потока : 378 Мбайт (8%)
Заголовок : Оригинал
Язык : English
Текст #1
Идентификатор : 7
Формат : UTF-8
Идентификатор кодека : S_TEXT/UTF8
Идентификатор кодека/Информация : UTF-8 Plain Text
Заголовок : v.1
Язык : Russian
Текст #2
Идентификатор : 8
Формат : UTF-8
Идентификатор кодека : S_TEXT/UTF8
Идентификатор кодека/Информация : UTF-8 Plain Text
Заголовок : v.2
Язык : Russian
Текст #3
Идентификатор : 9
Формат : UTF-8
Идентификатор кодека : S_TEXT/UTF8
Идентификатор кодека/Информация : UTF-8 Plain Text
Язык : English
Меню
00:00:00.000 : en:Opening Credits/Family Album
00:03:24.412 : en:Boost Gone Bad
00:08:45.066 : en:Message to Memphis
00:11:54.422 : en:Emotional Rescue
00:16:54.179 : en:Brotherly Love
00:18:42.871 : en:Police Hospitality
00:23:36.331 : en:Second Chances
00:26:49.691 : en:Old Friends
00:31:58.249 : en:Turf War
00:33:36.973 : en:Free Advice
00:36:23.431 : en:Touch Decision
00:38:42.319 : en:Trap Set
00:39:33.704 : en:Complicated List
00:42:11.362 : en:Catching a Thief
00:44:18.864 : en:The Scout
00:48:42.544 : en:Johnny B. Good
00:52:55.505 : en:Unexpected Visitor
00:58:43.853 : en:"Hello Ladies"
01:06:14.887 : en:Dirty Girls
01:11:07.388 : en:Back to Work
01:13:43.168 : en:Cars or Sex?
01:17:29.978 : en:Decoy
01:19:38.523 : en:Gotcha!
01:21:23.586 : en:Business Risk
01:26:47.118 : en:Eleanor
01:32:52.233 : en:Lesson Learned
01:34:18.652 : en:Just a Scratch
01:38:27.818 : en:Big Jump
01:40:06.416 : en:Time's Up
01:44:12.704 : en:Painful Mistake
01:48:39.262 : en:BBQ
01:51:48.159 : en:End Credits

Знаете ли Вы, что...

Список автомобилей

Это список автомобилей, которые Мемфис должен был украсть для Калитри, вместе с их кодовыми именами. Список был взят из буклета к ранним выпускам DVD фильма.1999 Aston Martin DB7 - Мэри
1962 Aston Martin DB1 - Барбара (на самом деле выпускать DB1 перестали в 1950. В фильме на самом деле представлена Aston Martin DB4 GT Zagato)
1999 Bentley Arnage - Линдси
1999 Bentley Azure - Лаура
1964 Bentley Continental - Альма
1959 Cadillac El Dorado - Мадленe (на самом деле в фильме представлена Cadillac Coupe de Ville)
1958 Cadillac El Dorado Brougham - Патрисия
1999 Cadillac Escalade - Кэрол
2000 Cadillac El Dorado STS - Даниела
1957 Chevrolet Bel Air Convertible - Стефани
1969 Chevrolet Camaro Z28 - Эрин
1953 Chevrolet Corvette - Памела
1967 Chevrolet Corvette Stingray L71 - Стэйси
2000 Ford F-Series F-350 4x4 Модифицированный Пикап - Энн (на самом деле в фильме используется F-250)
1971 DeTomaso Pantera - Кейт
1969 Dodge Charger Daytona- Ванесса
1998 Dodge Viper Coupe GTS - Дэнис
1995 Ferrari 355 B - Диана
1997 Ferrari 355 F1 - Айрис
1967 Ferrari 265 GTB/4 - Надин (на самом деле в фильме Ferrari 275 GTB/4.)
1999 Ferrari 550 Maranello - Анжелина
1987 Ferrari Testarossa - Роза
1956 Ford T-Bird - Сьюзан
2000 GMC Yukon - Меган
1999 Hummer H1Truck 2 Door - Трэйси
1999 Infiniti Q45 - Рэйчел
1994 Jaguar XJ220 - Бернадин
1999 Jaguar XK8 Coupe - Дебора (на самом деле в фильме Jaguar XJ8)
1990 Lamborghini LM SUV - Джина (на самом деле в фильме 1994 Lamborghini Diablo SE30. LM SUV чрезвычайно редки.)
1999 Lexus LS 400 - Хиллари
1999 Lincoln Navigator - Кимберли
1957 Mercedes Benz 300 SL/Gullwing - Дороти
1999 Mercedes Benz CL 500 - Донна
1999 Mercedes Benz S 600 - Саманта (на самом деле в фильме Mercedes Benz S 500)
1998 Mercedes Benz SL 600 - Эллен
1950 Mercury Custom - Габриэла
1971 Plymouth Hemi 'Cuda - Шэннон
1969 Plymouth Road Runner - Джессика (в фильме используется Plymouth Superbird)
1965 Pontiac GTO - Шэрон
1999 Porsche 996 - Тина
2000 Porsche Boxster - Марша
1961 Porsche 356B Speedster - Натали
1988 Porsche 959 - Вирджиния
1997 Porsche 911 Twin Turbo - Таня
2000 Rolls-Royce Park Ward Stretch limousine - Грейс
1966 Shelby AC Cobra - Эшли
2000 Toyota Land Cruiser - Кэти
1998 Toyota Supra Turbo - Линн
2000 Volvo Turbo Wagon R - Лиза (в фильме Volvo V70 R)
1967 Shelby Mustang GT 500 - Элеонор
В сцене, в которой Сфинкс на "Хаммере" сносит полицейскую машину, не было запланировано, что полицейская машина упадет со ската. Винни Джонсу просто не хватило места, чтобы дать задний ход и он чуть сильнее сдвинул полицейскую машину из-за чего та рухнула со ската.
В одном из ранних вариантов сценария, было множество вещей из оригинального фильма. Для примера, перед тем как украсть Элеонор Мемфис должен был замаскироваться под старика, а у Сфинкса не должно было быть носа, что объясняло его кличку.
В съемках было использовано десять Элеонор, девять из которых были разбиты во время трюков. Выжившая машина продана в 2009 году за $216 700 на аукционе Barrett-Jackson.
В сцене на полицейской стоянке для конфискованных машин, когда Зеркалка отвлекает полицейского в будке, за его спиной можно увидеть вывеску с надписью "GONE in sixty seconds", судя по всему это аналог совета на бегущей строке из оригинального фильма.
Угон последней машины: Кейдж сначала заводит автомобиль двумя руками (в одной - шпилька, в другой - некий инструмент). В процессе погони эта машина глохнет, и тут Николас заводит ее уже ключом
Угон последней машины: У Элеонор ломается зеркало бокового вида. После того, как Мемфис повторно её заводит, оба зеркала целые.
Кейдж разбивает поворотник у машины и замыкает провода, отключая сигнализацию. Дело в том, что за свет и сирену в любом автомобиле отвечают совершенно разные электрические схемы

_________________


Последний раз редактировалось: awk05 (2014-07-22 18:02), всего редактировалось 1 раз
[Торрент-статистика]
[Профиль]  [ЛС] 

Пост 05-Фев-2014 23:28 (спустя 6 часов)

Топик был перенесен из форума Фильмы 2000-2004 в форум Зарубежное кино (HD Video)
Волк
 
Показать сообщения:    
Ответить на тему

Текущее время: Сегодня 00:28

Часовой пояс: GMT + 4



Вы не можете начинать темы
Вы не можете отвечать на сообщения
Вы не можете редактировать свои сообщения
Вы не можете удалять свои сообщения
Вы не можете голосовать в опросах
Вы не можете прикреплять файлы к сообщениям
Вы не можете скачивать файлы