Дорз / The Doors (Оливер Стоун / Oliver Stone) [1991, драма, музыка, биография, BDRip 720p] DVO + MVO +AVO + Original + Subs (Rus, Eng, Fre)

Ответить на тему
 
Автор
Сообщение

awk05 ®

Пол:

Стаж: 5 лет 3 месяца

Сообщений: 1352

Репутация: 275 [+] [-]

Откуда: Западная Украина Ривне

Пост 05-Фев-2014 15:00

[Цитировать] 

--Дорз / The Doors«The ceremony is about to begin»--
Год выпуска: 1991
Страна: США
Жанр: драма, музыка, биография
Продолжительность: 02:20:39
Перевод: Профессиональный (двухголосый, закадровый) [D2Lab], Профессиональный (многоголосый, закадровый) [CP Digital], Любительский (двухголосый, закадровый) [816 DVD TEAM], Авторский (Гаврилов Андрей)
Cубтитры: русские, английские, французские
Навигация по главам: есть
Режиссер: Оливер Стоун / Oliver Stone--В ролях: Вэл Килмер (Jim Morrison), Кэтлин Куинлен (Patricia Kennealy), Майкл Уинкотт (Paul Rothchild), Майкл Мэдсен (Tom Baker), Джош Эванс (Bill Siddons), Деннис Бёркли (Dog), Билли Айдол (Cat), Кайл МакЛоклен (Ray Manzarek), Мег Райан (Pamela Courson), Кевин Диллон (John Densmore), Фрэнк Уэйли (Robby Krieger), Джон Денсмор (Engineer - Last Session)--Описание: Фильм представляет собой набор эпизодов из биографии Джима Моррисона. Среди них: детское воспоминания Джима, когда он видит, как старый индеец умирает на обочине (со ссылкой на строчку англ. «Indians scattered on dawn's highway bleeding, Ghosts crowd the young child's fragile eggshell mind» из песни The Doors «Peace Frog»); прибытие Моррисона в Калифорнию; первое знакомство с его подругой Памелой Курсон; его первые встречи с Рэем Манзареком; создание «The Doors» вместе с Манзареком, Робби Кригером, и Джоном Денсмором; выступления группы; знакомство с будущей женой Патрицией Кеннели.
Его идолы возводились на пьедестал, поклонялись и подражали. «Дорз» и их раскованная, пьянящая музыка стали символом поколения.
--Качество: BDRip
Формат: MKV
Видеокодек: AVC (High@L4.1)
Аудиокодек: AC-3, DTS
Видео: 1280x544 (2.35:1), 23,976 кадра/сек, 4300 Кбит/сек, 0.258 Бит/(Пиксели*Кадры)
Аудио 1: 6 каналов Front: L C R, Side: L R, LFE, 48,0 КГц, 448 Кбит/сек, 16 бит [RUS] D2Lab
Аудио 2: 6 каналов Front: L C R, Side: L R, LFE, 48,0 КГц, 384 Кбит/сек, 16 бит [RUS] CP Digital
Аудио 3: 6 каналов Front: L C R, Side: L R, LFE, 48,0 КГц, 448 Кбит/сек, 16 бит [RUS] 816 DVD TEAM
Аудио 4: 6 каналов Front: L C R, Side: L R, LFE, 48,0 КГц, 1510 Кбит/сек, 24 бит [RUS] Гаврилов
Аудио 5: 6 каналов Front: L C R, Side: L R, LFE, 48,0 КГц, 1509 Кбит/сек, 24 бит [ENG] Original
Аудио 6: 2 канала Front: L R, 48,0 КГц, 192 Кбит/сек, 16 бит [ENG] Комментарии режиссера
Аудио 7: 2 канала Front: L R, 48,0 КГц, 192 Кбит/сек, 16 бит [RUS] Комментарии режиссера с переводом
Субтитры №1: Russian; D2Lab
Субтитры №2: Russian; 816 DVD TEAM
Субтитры №3: Russian; 816 DVD TEAM (надписи и песни)
Субтитры №4: Russian; CP Digital
Субтитры №5: English
Субтитры №6: French-- --

Знаете ли Вы, что...

Килмер, по заявлению Стоуна — второй кандидат на роль, первым был Иан Астбери (Ian Astbury) британский рок-певец. Маклахлан, давний фанат Doors, заявлял, что хочет сыграть Моррисона, но согласился на роль Манзарека, после того как был выбран Килмер.
Кригер, Денсмор и Кеннели были техническими советниками фильма. В то же самое время, участники группы остались недовольны конечным вариантом фильма, критикуя Стоуна за изображение Моррисона неконтролируемым социопатом, и отрицая это.
В фильме содержится более двадцати песен The Doors. А вокал Килмера непосредственно наложен на оригинальные записи группы. Он так точно изображал Моррисона, что даже бывшие члены группы иногда не могли отличить его исполнение от оригинальной записи.
Джим встретил Памелу Курсон в «London Fog», когда The Doors играли там, а не на улице как показано в фильме.
Когда в фильме Моррисона просят изменить нецензурный текст в «Light My Fire» для выступления на «Ed Sullivan Show», он выражает явное игнорирование просьбы из-за бунтарства. На самом же деле, Моррисон настаивал, что это была случайность, что он хотел изменить текст, но был настолько взволнован исполнением в прямом эфире по телевидению, что забыл это сделать, когда пел.
Это Жоэль Бродский сделал знаменитую фотографию Джима с голым торсом (на обложке альбома «Best Of The Doors», 1998), а не Глория Ставерс.
Оливер Стоун в начале своей карьеры познакомился с Джимом Моррисоном незадолго до его смерти.
Реклама с песней «Light my fire» по-настоящему не выходила. Джим не дал согласия компании «Buick» её использовать.

MI

Общее
Уникальный идентификатор : 225192382748516679362422952874329189974 (0xA96A79AE7641E3859A8EBC4C08E72E56)
Полное имя : G:\Films\The.Doors.1991.720p.BluRay.Rus.Eng.HDCLUB.mkv
Формат : Matroska
Версия формата : Version 2
Размер файла : 8,83 Гбайт
Продолжительность : 2 ч. 20 м.
Общий поток : 8987 Кбит/сек
Кодирование произвёл : [tRuAVC @ HD Uploaders]Skazhutin
Дата кодирования : UTC 2010-11-25 12:22:19
Программа кодирования : mkvmerge v4.4.0 ('Die Wiederkehr') built on Oct 31 2010 21:52:48
Библиотека кодирования : libebml v1.0.0 + libmatroska v1.0.0
TITLE : The Doors (1991) [tRuAVC @ HD Uploaders]
DATE_RELEASED : November 25th 2010
COMMENT : BDRip/AVC/AC3/DTS (Source: MPEG-4 AVC Video / 26981 kbps / 1080p / 23,976 fps / 16:9 / High Profile 4.1)
Attachment : Yes / Yes
Видео
Идентификатор : 1
Формат : AVC
Формат/Информация : Advanced Video Codec
Профиль формата : High@L4.1
Параметр CABAC формата : Да
Параметр ReFrames формата : 10 кадров
Идентификатор кодека : V_MPEG4/ISO/AVC
Продолжительность : 2 ч. 20 м.
Битрейт : 4300 Кбит/сек
Ширина : 1280 пикселей
Высота : 544 пикселя
Соотношение сторон : 2,35:1
Режим частоты кадров : Постоянный
Частота кадров : 23,976 кадра/сек
Цветовое пространство : YUV
Субдискретизация насыщенности : 4:2:0
Битовая глубина : 8 бит
Тип развёртки : Прогрессивная
Бит/(Пиксели*Кадры) : 0.258
Размер потока : 4,05 Гбайт (46%)
Заголовок : 1280x544 (2.353:1); 4299 Kbps; 23,976 fps; 0,257 bpp
Библиотека кодирования : x264 core 107 r1766 f9f0035
Настройки программы : cabac=1 / ref=10 / deblock=1:-3:-2 / analyse=0x3:0x113 / me=umh / subme=10 / psy=1 / psy_rd=0.95:0.10 / mixed_ref=1 / me_range=32 / chroma_me=1 / trellis=2 / 8x8dct=1 / cqm=0 / deadzone=21,11 / fast_pskip=1 / chroma_qp_offset=-3 / threads=6 / sliced_threads=0 / nr=0 / decimate=1 / interlaced=0 / constrained_intra=0 / bframes=13 / b_pyramid=2 / b_adapt=2 / b_bias=0 / direct=3 / weightb=1 / open_gop=0 / weightp=2 / keyint=250 / keyint_min=23 / scenecut=40 / intra_refresh=0 / rc_lookahead=60 / rc=2pass / mbtree=0 / bitrate=4300 / ratetol=1.0 / qcomp=0.72 / qpmin=10 / qpmax=51 / qpstep=4 / cplxblur=20.0 / qblur=0.5 / vbv_maxrate=50000 / vbv_bufsize=62500 / ip_ratio=1.40 / pb_ratio=1.30 / aq=1:0.90 / zones=194388,202344,q=30 / nal_hrd=none
Язык : English
Default : Да
Forced : Нет
Коэффициенты матрицы : BT.709
Аудио #1
Идентификатор : 2
Формат : AC-3
Формат/Информация : Audio Coding 3
Расширение режима : CM (complete main)
Параметр Endianness формата : Big
Идентификатор кодека : A_AC3
Продолжительность : 2 ч. 20 м.
Вид битрейта : Постоянный
Битрейт : 448 Кбит/сек
Каналы : 6 каналов
Расположение каналов : Front: L C R, Side: L R, LFE
Частота : 48,0 КГц
Битовая глубина : 16 бит
Метод сжатия : С потерями
Размер потока : 451 Мбайт (5%)
Заголовок : Dolby Digital Audio / 5.1 / 48 kHz / 448 kbps; D2Lab
Язык : Russian
Default : Да
Forced : Нет
Аудио #2
Идентификатор : 3
Формат : AC-3
Формат/Информация : Audio Coding 3
Расширение режима : CM (complete main)
Параметр Endianness формата : Big
Идентификатор кодека : A_AC3
Продолжительность : 2 ч. 20 м.
Вид битрейта : Постоянный
Битрейт : 384 Кбит/сек
Каналы : 6 каналов
Расположение каналов : Front: L C R, Side: L R, LFE
Частота : 48,0 КГц
Битовая глубина : 16 бит
Метод сжатия : С потерями
Размер потока : 386 Мбайт (4%)
Заголовок : Dolby Digital Audio / 5.1 / 48 kHz / 384 kbps; CP Digital
Язык : Russian
Default : Нет
Forced : Нет
Аудио #3
Идентификатор : 4
Формат : AC-3
Формат/Информация : Audio Coding 3
Расширение режима : CM (complete main)
Параметр Endianness формата : Big
Идентификатор кодека : A_AC3
Продолжительность : 2 ч. 20 м.
Вид битрейта : Постоянный
Битрейт : 448 Кбит/сек
Каналы : 6 каналов
Расположение каналов : Front: L C R, Side: L R, LFE
Частота : 48,0 КГц
Битовая глубина : 16 бит
Метод сжатия : С потерями
Размер потока : 451 Мбайт (5%)
Заголовок : Dolby Digital Audio / 5.1 / 48 kHz / 448 kbps; 816 DVD TEAM
Язык : Russian
Default : Нет
Forced : Нет
Аудио #4
Идентификатор : 5
Формат : DTS
Формат/Информация : Digital Theater Systems
Режим : 16
Параметр Endianness формата : Big
Идентификатор кодека : A_DTS
Продолжительность : 2 ч. 20 м.
Вид битрейта : Постоянный
Битрейт : 1510 Кбит/сек
Каналы : 6 каналов
Расположение каналов : Front: L C R, Side: L R, LFE
Частота : 48,0 КГц
Битовая глубина : 24 бит
Метод сжатия : С потерями
Размер потока : 1,48 Гбайт (17%)
Заголовок : DTS Audio / 5.1 / 48 kHz / 1509 kbps / 24-bit; Гаврилов
Язык : Russian
Default : Нет
Forced : Нет
Аудио #5
Идентификатор : 6
Формат : DTS
Формат/Информация : Digital Theater Systems
Режим : 16
Параметр Endianness формата : Big
Идентификатор кодека : A_DTS
Продолжительность : 2 ч. 20 м.
Вид битрейта : Постоянный
Битрейт : 1509 Кбит/сек
Каналы : 6 каналов
Расположение каналов : Front: L C R, Side: L R, LFE
Частота : 48,0 КГц
Битовая глубина : 24 бит
Метод сжатия : С потерями
Размер потока : 1,48 Гбайт (17%)
Заголовок : DTS Audio / 5.1 / 48 kHz / 1509 kbps / 24-bit; Original
Язык : English
Default : Нет
Forced : Нет
Аудио #6
Идентификатор : 7
Формат : AC-3
Формат/Информация : Audio Coding 3
Расширение режима : CM (complete main)
Параметр Endianness формата : Big
Идентификатор кодека : A_AC3
Продолжительность : 2 ч. 20 м.
Вид битрейта : Постоянный
Битрейт : 192 Кбит/сек
Каналы : 2 канала
Расположение каналов : Front: L R
Частота : 48,0 КГц
Битовая глубина : 16 бит
Метод сжатия : С потерями
Размер потока : 193 Мбайт (2%)
Заголовок : Dolby Digital Audio / 2.0 / 48 kHz / 192 kbps; Commentary
Язык : English
Default : Нет
Forced : Нет
Аудио #7
Идентификатор : 8
Формат : AC-3
Формат/Информация : Audio Coding 3
Расширение режима : CM (complete main)
Параметр Endianness формата : Big
Идентификатор кодека : A_AC3
Продолжительность : 2 ч. 20 м.
Вид битрейта : Постоянный
Битрейт : 192 Кбит/сек
Каналы : 2 канала
Расположение каналов : Front: L R
Частота : 48,0 КГц
Битовая глубина : 16 бит
Метод сжатия : С потерями
Размер потока : 193 Мбайт (2%)
Заголовок : Dolby Digital Audio / 2.0 / 48 kHz / 192 kbps; Commentary
Язык : Russian
Default : Нет
Forced : Нет
Текст #1
Идентификатор : 9
Формат : UTF-8
Идентификатор кодека : S_TEXT/UTF8
Идентификатор кодека/Информация : UTF-8 Plain Text
Заголовок : D2Lab
Язык : Russian
Default : Нет
Forced : Нет
Текст #2
Идентификатор : 10
Формат : UTF-8
Идентификатор кодека : S_TEXT/UTF8
Идентификатор кодека/Информация : UTF-8 Plain Text
Заголовок : 816 DVD TEAM
Язык : Russian
Default : Нет
Forced : Нет
Текст #3
Идентификатор : 11
Формат : UTF-8
Идентификатор кодека : S_TEXT/UTF8
Идентификатор кодека/Информация : UTF-8 Plain Text
Заголовок : forced
Язык : Russian
Default : Нет
Forced : Нет
Текст #4
Идентификатор : 12
Формат : UTF-8
Идентификатор кодека : S_TEXT/UTF8
Идентификатор кодека/Информация : UTF-8 Plain Text
Заголовок : CP Digital
Язык : Russian
Default : Нет
Forced : Нет
Текст #5
Идентификатор : 13
Формат : UTF-8
Идентификатор кодека : S_TEXT/UTF8
Идентификатор кодека/Информация : UTF-8 Plain Text
Язык : English
Default : Нет
Forced : Нет
Текст #6
Идентификатор : 14
Формат : UTF-8
Идентификатор кодека : S_TEXT/UTF8
Идентификатор кодека/Информация : UTF-8 Plain Text
Язык : French
Default : Нет
Forced : Нет
Меню
00:00:00.000 : en:Opening Credits
00:04:53.234 : en:Venice Beach
00:07:54.735 : en:UCLA Film School
00:09:58.735 : en:Beautiful Night
00:11:34.735 : en:The Shaman
00:14:40.902 : en:"The Doors of Perception."
00:18:09.236 : en:Garage Session
00:21:42.270 : en:Sunset Strip
00:23:42.070 : en:The Musketeers
00:27:05.738 : en:Trip to the Desert
00:39:42.739 : en:Let's Go Make a Record
00:40:53.739 : en:An Album of Killer Music
00:43:04.739 : en:New York
00:44:58.573 : en:The Ed Sullivan Show
00:47:58.073 : en:The One They Want
00:50:00.573 : en:The Warhol Party
00:56:18.140 : en:Out On the Town
00:58:19.974 : en:The Press Conference
01:01:04.808 : en:Blood Ritual
01:05:15.808 : en:"Will You Die for Me?"
01:08:57.475 : en:New Haven, 1968
01:18:31.975 : en:"Testing the Bounds of Reality."
01:19:49.975 : en:Drinking Buddies
01:21:11.142 : en:The Poet & His Muse
01:23:59.010 : en:Another Ruined Thanksgiving
01:29:11.010 : en:San Francisco, 1968
01:36:28.445 : en:Too Drunk to Sing
01:43:19.079 : en:Miami, 1969
01:57:34.848 : en:Trial In Miami
02:01:30.215 : en:Nervous Breakdown
02:02:44.016 : en:Life On the Edge
02:05:07.083 : en:Birthday Party
02:09:06.051 : en:"Let's Get Some Tacos."
02:09:40.752 : en:Paris, 1971
02:13:24.653 : en:End Credits

_________________


Последний раз редактировалось: awk05 (2014-07-22 18:11), всего редактировалось 1 раз
[Торрент-статистика]
[Профиль]  [ЛС] 

Пост 05-Фев-2014 22:39 (спустя 7 часов)

Топик был перенесен из форума Фильмы 1991-1994 в форум Зарубежное кино (HD Video)
ArtZak
 
Показать сообщения:    
Ответить на тему

Текущее время: Сегодня 16:11

Часовой пояс: GMT + 4



Вы не можете начинать темы
Вы не можете отвечать на сообщения
Вы не можете редактировать свои сообщения
Вы не можете удалять свои сообщения
Вы не можете голосовать в опросах
Вы не можете прикреплять файлы к сообщениям
Вы не можете скачивать файлы