Телекинез / Carrie (Кимберли Пирс / Kimberly Peirce) [2013 г., триллер, ужасы, драма, BDRip 720p] [Лицензия] + Original (ENG) + Subs (RUS, UKR, ENG)

Ответить на тему
 
Автор
Сообщение

TiZAr ®

Пол:

Стаж: 3 года 3 месяца

Сообщений: 836

Репутация: 1157 [+] [-]

Откуда: Россия

Пост 05-Фев-2014 06:31

[Цитировать] 

Телекинез / Carrie
«Ты ещё узнаешь её имя»
- Год выпуска: 2013
Страна: США / Metro-Goldwyn-Mayer (MGM), Misher Films, Screen Gems
Жанр: триллер, ужасы, драма
Продолжительность: 01:39:41
Перевод: Профессиональный (полное дублирование)
Качество перевода: Лицензия
Cубтитры: Русские, Украинские, Английские
Оригинальная аудиодорожка: английская
Оглавление: есть
Режиссер: Кимберли Пирс / Kimberly Peirce- -В ролях:
Хлоя Грейс Морец, Джулианна Мур, Джуди Грир, Портия Даблдэй, Габриэлла Уайлд, Алекс Расселл, Зои Белкин, Энсел Эльгорт, Саманта Вайнштейн, Карисса Стрэйн и др.
Описание:
Невзрачная старшеклассница по имени Кэрри с рождения обладает способностями телекинеза. Давление со стороны фанатично религиозной мамочки и постоянные издевки сверстников лишь способствует развитию ее сверхъестественных способностей. На выпускном одноклассники решают жестоко подшутить над ней, что приводит к фатальным последствиям.

Качество: BDRip 720p | Сэмпл
Формат: MKV
Видео: AVC, 1280x544 (2.35:1), 23.976 fps, 4 929 Kbps (0.295 bit/pixel)
Аудио #1: AC-3, 48.0 KHz, 6 ch, 448 Kbps, CBR (Russian)
Аудио #2: AC-3, 48.0 KHz, 6 ch, 448 Kbps, CBR (Ukrainian)
Аудио #3: AC-3, 48.0 KHz, 6 ch, 448 Kbps, CBR (English)

MI

Код:
General
Unique ID                                : 211256105694419011647866111046588621340 (0x9EEE722C5854AD0C9FF70A44C590E21C)
Complete name                            : E:\downloads\Carrie.TEATR.2013.BD.720.Hot-Film.mkv
Format                                   : Matroska
Format version                           : Version 2
File size                                : 4.37 GiB
Duration                                 : 1h 39mn
Overall bit rate                         : 6 271 Kbps
Encoded date                             : UTC 2014-02-04 17:38:50
Writing application                      : mkvmerge v5.8.0 ('No Sleep / Pillow') built on Sep  2 2012 15:37:04
Writing library                          : libebml v1.2.3 + libmatroska v1.3.0
Video
ID                                       : 1
Format                                   : AVC
Format/Info                              : Advanced Video Codec
Format profile                           : High@L4.1
Format settings, CABAC                   : Yes
Format settings, ReFrames                : 11 frames
Codec ID                                 : V_MPEG4/ISO/AVC
Duration                                 : 1h 39mn
Bit rate                                 : 4 929 Kbps
Width                                    : 1 280 pixels
Height                                   : 544 pixels
Display aspect ratio                     : 2.35:1
Frame rate mode                          : Constant
Frame rate                               : 23.976 fps
Color space                              : YUV
Chroma subsampling                       : 4:2:0
Bit depth                                : 8 bits
Scan type                                : Progressive
Bits/(Pixel*Frame)                       : 0.295
Stream size                              : 3.34 GiB (77%)
Writing library                          : x264 core 138 r2358 9e941d1
Encoding settings                        : cabac=1 / ref=11 / deblock=1:-3:-3 / analyse=0x3:0x113 / me=umh / subme=11 / psy=1 / psy_rd=1.05:0.10 / mixed_ref=1 / me_range=32 / chroma_me=1 / trellis=2 / 8x8dct=1 / cqm=0 / deadzone=21,11 / fast_pskip=0 / chroma_qp_offset=-3 / threads=2 / lookahead_threads=1 / sliced_threads=0 / nr=0 / decimate=0 / interlaced=0 / bluray_compat=0 / constrained_intra=0 / bframes=8 / b_pyramid=2 / b_adapt=2 / b_bias=0 / direct=3 / weightb=1 / open_gop=0 / weightp=2 / keyint=240 / keyint_min=23 / scenecut=40 / intra_refresh=0 / rc_lookahead=40 / rc=2pass / mbtree=0 / bitrate=4929 / ratetol=1.0 / qcomp=0.60 / qpmin=0 / qpmax=69 / qpstep=4 / cplxblur=20.0 / qblur=0.5 / vbv_maxrate=50000 / vbv_bufsize=62500 / nal_hrd=none / ip_ratio=1.40 / pb_ratio=1.30 / aq=1:1.00
Language                                 : English
Default                                  : Yes
Forced                                   : No
Audio #1
ID                                       : 2
Format                                   : AC-3
Format/Info                              : Audio Coding 3
Mode extension                           : CM (complete main)
Format settings, Endianness              : Big
Codec ID                                 : A_AC3
Duration                                 : 1h 39mn
Bit rate mode                            : Constant
Bit rate                                 : 448 Kbps
Channel count                            : 6 channels
Channel positions                        : Front: L C R, Side: L R, LFE
Sampling rate                            : 48.0 KHz
Bit depth                                : 16 bits
Compression mode                         : Lossy
Stream size                              : 319 MiB (7%)
Language                                 : Russian
Default                                  : Yes
Forced                                   : No
Audio #2
ID                                       : 3
Format                                   : AC-3
Format/Info                              : Audio Coding 3
Mode extension                           : CM (complete main)
Format settings, Endianness              : Big
Codec ID                                 : A_AC3
Duration                                 : 1h 39mn
Bit rate mode                            : Constant
Bit rate                                 : 448 Kbps
Channel count                            : 6 channels
Channel positions                        : Front: L C R, Side: L R, LFE
Sampling rate                            : 48.0 KHz
Bit depth                                : 16 bits
Compression mode                         : Lossy
Stream size                              : 319 MiB (7%)
Language                                 : Ukrainian
Default                                  : No
Forced                                   : No
Audio #3
ID                                       : 4
Format                                   : AC-3
Format/Info                              : Audio Coding 3
Mode extension                           : CM (complete main)
Format settings, Endianness              : Big
Codec ID                                 : A_AC3
Duration                                 : 1h 39mn
Bit rate mode                            : Constant
Bit rate                                 : 448 Kbps
Channel count                            : 6 channels
Channel positions                        : Front: L C R, Side: L R, LFE
Sampling rate                            : 48.0 KHz
Bit depth                                : 16 bits
Compression mode                         : Lossy
Stream size                              : 319 MiB (7%)
Language                                 : English
Default                                  : No
Forced                                   : No
Text #1
ID                                       : 5
Format                                   : UTF-8
Codec ID                                 : S_TEXT/UTF8
Codec ID/Info                            : UTF-8 Plain Text
Title                                    : FORCE
Language                                 : Russian
Default                                  : Yes
Forced                                   : Yes
Text #2
ID                                       : 6
Format                                   : UTF-8
Codec ID                                 : S_TEXT/UTF8
Codec ID/Info                            : UTF-8 Plain Text
Title                                    : FULL
Language                                 : Russian
Default                                  : No
Forced                                   : No
Text #3
ID                                       : 7
Format                                   : UTF-8
Codec ID                                 : S_TEXT/UTF8
Codec ID/Info                            : UTF-8 Plain Text
Language                                 : Ukrainian
Default                                  : No
Forced                                   : No
Text #4
ID                                       : 8
Format                                   : UTF-8
Codec ID                                 : S_TEXT/UTF8
Codec ID/Info                            : UTF-8 Plain Text
Language                                 : English
Default                                  : No
Forced                                   : No
Menu
00:00:00.000                             : :Chapter 01
00:04:14.546                             : :Chapter 02
00:06:37.856                             : :Chapter 03
00:10:07.649                             : :Chapter 04
00:12:03.681                             : :Chapter 05
00:14:46.177                             : :Chapter 06
00:18:50.463                             : :Chapter 07
00:23:15.060                             : :Chapter 08
00:26:51.401                             : :Chapter 09
00:30:50.974                             : :Chapter 10
00:32:27.863                             : :Chapter 11
00:36:18.093                             : :Chapter 12
00:38:20.340                             : :Chapter 13
00:41:47.755                             : :Chapter 14
00:46:22.196                             : :Chapter 15
00:51:01.850                             : :Chapter 16
00:53:09.853                             : :Chapter 17
00:55:47.678                             : :Chapter 18
01:00:52.065                             : :Chapter 19
01:04:02.338                             : :Chapter 20
01:07:03.311                             : :Chapter 21
01:09:38.383                             : :Chapter 22
01:13:05.381                             : :Chapter 23
01:18:25.159                             : :Chapter 24
01:22:46.712                             : :Chapter 25
01:25:17.863                             : :Chapter 26
01:29:25.360                             : :Chapter 27
01:33:36.402                             : :Chapter 28

Скриншоты


_________________
Не стоит обращать внимания на отсутствие сидов на моих раздачах. Все мои релизы мультитрекерные - нет сидов, включите DHT.
За релизами в HD качестве обращайтесь в личку, либо отписывайтесь в теме.
[Торрент-статистика]
[Профиль]  [ЛС] 
Показать сообщения:    
Ответить на тему

Текущее время: Сегодня 16:31

Часовой пояс: GMT + 4



Вы не можете начинать темы
Вы не можете отвечать на сообщения
Вы не можете редактировать свои сообщения
Вы не можете удалять свои сообщения
Вы не можете голосовать в опросах
Вы не можете прикреплять файлы к сообщениям
Вы не можете скачивать файлы