Игра Эндера / Ender's Game (Гэвин Худ / Gavin Hood) [2013 г., фантастика, боевик, приключения, BDRip 720p] [Чистый звук] + Original (ENG) + Subs (RUS, ENG)

Ответить на тему
 
Автор
Сообщение

TiZAr ®

Пол:

Стаж: 4 года 2 месяца

Сообщений: 837

Репутация: 1160 [+] [-]

Откуда: Россия

Пост 04-Фев-2014 02:40

[Цитировать] 


«Это не игра»
- Год выпуска: 2013
Страна: США / Chartoff Productions, Kurtzman Orci Paper Products, Summit Entertainment
Жанр: фантастика, боевик, приключения
Продолжительность: 01:54:48
Перевод: Профессиональный (полное дублирование)
Качество перевода: Чистый звук
Cубтитры: Русские, Английские
Оригинальная аудиодорожка: английская
Оглавление: есть
Режиссер: Гэвин Худ / Gavin Hood
Производство: Chartoff Productions, Digital Domain Media Group, Kurtzman Orci Paper Products, Odd Lot Entertainment, Summit Entertainment, Tomkats Catering- -В ролях:
Эйса Баттерфилд, Харрисон Форд, Бен Кингсли, Виола Дэвис, Хейли Стайнфелд, Эбигейл Бреслин, Арамис Найт, Сурадж Партха, Мойзес Ариас, Кайлин Рамбо и др.
Описание:
Действие происходит в 2135 году. Человечество пережило два вторжения инопланетной расы «жукеров», лишь чудом уцелев, и готовится к очередному вторжению.
Для поиска пилотов и военачальников, способных принести Земле победу, создаётся военная школа, в которую отправляют самых талантливых детей. Среди этих детей Эндрю (Эндер) Виггин, будущий полководец Международного флота Земли и единственная надежда человечества на спасение.

Качество: BDRip 720p | Сэмпл
Формат: AVI
Видео: AVC, 1280x534 (2.35:1), 23.976 fps, 4 150 Kbps (0.253 bit/pixel)
Аудио #1: AC-3, 48.0 KHz, 2 ch, 320 Kbps, CBR (Russian)
Аудио #2: AC-3, 48.0 KHz, 6 ch, 448 Kbps, CBR (English)

MI

Код:
General
Unique ID                                : 203764605296328681478511639009406473375 (0x994BA2AFC6EB10E4809208CB6D3FD49F)
Complete name                            : Enders.Game.2013.BD.720.Hot-Film.mkv
Format                                   : Matroska
Format version                           : Version 2
File size                                : 3.91 GiB
Duration                                 : 1h 53mn
Overall bit rate                         : 4 919 Kbps
Encoded date                             : UTC 2014-02-02 18:34:04
Writing application                      : mkvmerge v5.8.0 ('No Sleep / Pillow') built on Sep  2 2012 15:37:04
Writing library                          : libebml v1.2.3 + libmatroska v1.3.0
Video
ID                                       : 1
Format                                   : AVC
Format/Info                              : Advanced Video Codec
Format profile                           : High@L4.1
Format settings, CABAC                   : Yes
Format settings, ReFrames                : 9 frames
Codec ID                                 : V_MPEG4/ISO/AVC
Duration                                 : 1h 53mn
Bit rate                                 : 4 150 Kbps
Width                                    : 1 280 pixels
Height                                   : 534 pixels
Display aspect ratio                     : 2.40:1
Frame rate mode                          : Constant
Frame rate                               : 23.976 fps
Color space                              : YUV
Chroma subsampling                       : 4:2:0
Bit depth                                : 8 bits
Scan type                                : Progressive
Bits/(Pixel*Frame)                       : 0.253
Stream size                              : 3.22 GiB (82%)
Writing library                          : x264 core 138 r2358 9e941d1
Encoding settings                        : cabac=1 / ref=9 / deblock=1:-3:-3 / analyse=0x3:0x113 / me=umh / subme=11 / psy=1 / psy_rd=1.05:0.10 / mixed_ref=1 / me_range=32 / chroma_me=1 / trellis=2 / 8x8dct=1 / cqm=0 / deadzone=21,11 / fast_pskip=0 / chroma_qp_offset=-3 / threads=2 / lookahead_threads=1 / sliced_threads=0 / nr=0 / decimate=0 / interlaced=0 / bluray_compat=0 / constrained_intra=0 / bframes=7 / b_pyramid=2 / b_adapt=2 / b_bias=0 / direct=3 / weightb=1 / open_gop=0 / weightp=2 / keyint=240 / keyint_min=23 / scenecut=40 / intra_refresh=0 / rc_lookahead=40 / rc=2pass / mbtree=0 / bitrate=4150 / ratetol=1.0 / qcomp=0.60 / qpmin=0 / qpmax=69 / qpstep=4 / cplxblur=20.0 / qblur=0.5 / vbv_maxrate=50000 / vbv_bufsize=62500 / nal_hrd=none / ip_ratio=1.40 / pb_ratio=1.30 / aq=1:1.00
Language                                 : English
Default                                  : Yes
Forced                                   : No
Audio #1
ID                                       : 2
Format                                   : AC-3
Format/Info                              : Audio Coding 3
Mode extension                           : CM (complete main)
Format settings, Endianness              : Big
Codec ID                                 : A_AC3
Duration                                 : 1h 53mn
Bit rate mode                            : Constant
Bit rate                                 : 320 Kbps
Channel count                            : 2 channels
Channel positions                        : Front: L R
Sampling rate                            : 48.0 KHz
Bit depth                                : 16 bits
Compression mode                         : Lossy
Stream size                              : 261 MiB (7%)
Language                                 : Russian
Default                                  : Yes
Forced                                   : No
Audio #2
ID                                       : 3
Format                                   : AC-3
Format/Info                              : Audio Coding 3
Mode extension                           : CM (complete main)
Format settings, Endianness              : Big
Codec ID                                 : A_AC3
Duration                                 : 1h 53mn
Bit rate mode                            : Constant
Bit rate                                 : 448 Kbps
Channel count                            : 6 channels
Channel positions                        : Front: L C R, Side: L R, LFE
Sampling rate                            : 48.0 KHz
Bit depth                                : 16 bits
Compression mode                         : Lossy
Stream size                              : 365 MiB (9%)
Language                                 : English
Default                                  : No
Forced                                   : No
Text #1
ID                                       : 4
Format                                   : UTF-8
Codec ID                                 : S_TEXT/UTF8
Codec ID/Info                            : UTF-8 Plain Text
Language                                 : Russian
Default                                  : No
Forced                                   : No
Text #2
ID                                       : 5
Format                                   : UTF-8
Codec ID                                 : S_TEXT/UTF8
Codec ID/Info                            : UTF-8 Plain Text
Language                                 : English
Default                                  : No
Forced                                   : No
Menu
00:00:00.000                             : :Chapter 01
00:06:10.579                             : :Chapter 02
00:14:18.566                             : :Chapter 03
00:19:06.145                             : :Chapter 04
00:28:07.144                             : :Chapter 05
00:33:22.667                             : :Chapter 06
00:39:34.664                             : :Chapter 07
00:45:43.407                             : :Chapter 08
00:53:37.714                             : :Chapter 09
01:02:15.607                             : :Chapter 10
01:09:21.949                             : :Chapter 11
01:15:16.887                             : :Chapter 12
01:23:38.305                             : :Chapter 13
01:30:54.824                             : :Chapter 14
01:35:43.279                             : :Chapter 15
01:41:12.858                             : :Chapter 16

Скриншоты



_________________
Не стоит обращать внимания на отсутствие сидов на моих раздачах. Все мои релизы мультитрекерные - нет сидов, включите DHT.
За релизами в HD качестве обращайтесь в личку, либо отписывайтесь в теме.
[Торрент-статистика]
[Профиль]  [ЛС] 
Показать сообщения:    
Ответить на тему

Текущее время: Сегодня 04:03

Часовой пояс: GMT + 4



Вы не можете начинать темы
Вы не можете отвечать на сообщения
Вы не можете редактировать свои сообщения
Вы не можете удалять свои сообщения
Вы не можете голосовать в опросах
Вы не можете прикреплять файлы к сообщениям
Вы не можете скачивать файлы